  0
SECTION
  2
HEADER
  9
$ACADVER
  1
AC1015
  9
$ACADMAINTVER
 70
    20
  9
$DWGCODEPAGE
  3
ANSI_936
  9
$INSBASE
 10
0.0
 20
0.0
 30
0.0
  9
$EXTMIN
 10
1088.44652502789
 20
95.68481270439278
 30
0.0
  9
$EXTMAX
 10
1182.470534871969
 20
180.2520553898191
 30
0.0
  9
$LIMMIN
 10
0.0
 20
0.0
  9
$LIMMAX
 10
12.0
 20
9.0
  9
$ORTHOMODE
 70
     1
  9
$REGENMODE
 70
     1
  9
$FILLMODE
 70
     1
  9
$QTEXTMODE
 70
     0
  9
$MIRRTEXT
 70
     0
  9
$LTSCALE
 40
1.0
  9
$ATTMODE
 70
     1
  9
$TEXTSIZE
 40
0.2
  9
$TRACEWID
 40
0.05
  9
$TEXTSTYLE
  7
STANDARD
  9
$CLAYER
  8
标注
  9
$CELTYPE
  6
ByLayer
  9
$CECOLOR
 62
   256
  9
$CELTSCALE
 40
1.0
  9
$DISPSILH
 70
     0
  9
$DIMSCALE
 40
1.0
  9
$DIMASZ
 40
0.65
  9
$DIMEXO
 40
0.88
  9
$DIMDLI
 40
0.015
  9
$DIMRND
 40
0.0
  9
$DIMDLE
 40
0.0
  9
$DIMEXE
 40
0.32
  9
$DIMTP
 40
0.0
  9
$DIMTM
 40
0.0
  9
$DIMTXT
 40
0.65
  9
$DIMCEN
 40
0.09
  9
$DIMTSZ
 40
0.0
  9
$DIMTOL
 70
     0
  9
$DIMLIM
 70
     0
  9
$DIMTIH
 70
     0
  9
$DIMTOH
 70
     0
  9
$DIMSE1
 70
     0
  9
$DIMSE2
 70
     0
  9
$DIMTAD
 70
     0
  9
$DIMZIN
 70
     8
  9
$DIMBLK
  1

  9
$DIMASO
 70
     1
  9
$DIMSHO
 70
     1
  9
$DIMPOST
  1
"
  9
$DIMAPOST
  1
"
  9
$DIMALT
 70
     0
  9
$DIMALTD
 70
     1
  9
$DIMALTF
 40
0.03937
  9
$DIMLFAC
 40
1.0
  9
$DIMTOFL
 70
     1
  9
$DIMTVP
 40
0.0
  9
$DIMTIX
 70
     0
  9
$DIMSOXD
 70
     0
  9
$DIMSAH
 70
     0
  9
$DIMBLK1
  1

  9
$DIMBLK2
  1

  9
$DIMSTYLE
  2
副本STANDARD
  9
$DIMCLRD
 70
   256
  9
$DIMCLRE
 70
   256
  9
$DIMCLRT
 70
   256
  9
$DIMTFAC
 40
1.0
  9
$DIMGAP
 40
0.3
  9
$DIMJUST
 70
     0
  9
$DIMSD1
 70
     0
  9
$DIMSD2
 70
     0
  9
$DIMTOLJ
 70
     1
  9
$DIMTZIN
 70
     8
  9
$DIMALTZ
 70
     8
  9
$DIMALTTZ
 70
     8
  9
$DIMUPT
 70
     0
  9
$DIMDEC
 70
     3
  9
$DIMTDEC
 70
     3
  9
$DIMALTU
 70
     2
  9
$DIMALTTD
 70
     1
  9
$DIMTXSTY
  7
STANDARD
  9
$DIMAUNIT
 70
     0
  9
$DIMADEC
 70
     0
  9
$DIMALTRND
 40
0.0
  9
$DIMAZIN
 70
     0
  9
$DIMDSEP
 70
    46
  9
$DIMATFIT
 70
     3
  9
$DIMFRAC
 70
     2
  9
$DIMLDRBLK
  1

  9
$DIMLUNIT
 70
     5
  9
$DIMLWD
 70
    -2
  9
$DIMLWE
 70
    -2
  9
$DIMTMOVE
 70
     2
  9
$LUNITS
 70
     2
  9
$LUPREC
 70
     4
  9
$SKETCHINC
 40
0.1
  9
$FILLETRAD
 40
0.0
  9
$AUNITS
 70
     0
  9
$AUPREC
 70
     0
  9
$MENU
  1
.
  9
$ELEVATION
 40
0.0
  9
$PELEVATION
 40
0.0
  9
$THICKNESS
 40
0.0
  9
$LIMCHECK
 70
     0
  9
$CHAMFERA
 40
0.0
  9
$CHAMFERB
 40
0.0
  9
$CHAMFERC
 40
0.0
  9
$CHAMFERD
 40
0.0
  9
$SKPOLY
 70
     0
  9
$TDCREATE
 40
2455434.724808658
  9
$TDUCREATE
 40
2455434.391475324
  9
$TDUPDATE
 40
2458564.573868403
  9
$TDUUPDATE
 40
2458564.240535070
  9
$TDINDWG
 40
0.6640870486
  9
$TDUSRTIMER
 40
0.6640699769
  9
$USRTIMER
 70
     1
  9
$ANGBASE
 50
0.0
  9
$ANGDIR
 70
     0
  9
$PDMODE
 70
     0
  9
$PDSIZE
 40
0.0
  9
$PLINEWID
 40
0.0
  9
$SPLFRAME
 70
     0
  9
$SPLINETYPE
 70
     6
  9
$SPLINESEGS
 70
     8
  9
$HANDSEED
  5
7C34
  9
$SURFTAB1
 70
     6
  9
$SURFTAB2
 70
     6
  9
$SURFTYPE
 70
     6
  9
$SURFU
 70
     6
  9
$SURFV
 70
     6
  9
$UCSBASE
  2

  9
$UCSNAME
  2

  9
$UCSORG
 10
0.0
 20
0.0
 30
0.0
  9
$UCSXDIR
 10
1.0
 20
0.0
 30
0.0
  9
$UCSYDIR
 10
0.0
 20
1.0
 30
0.0
  9
$UCSORTHOREF
  2

  9
$UCSORTHOVIEW
 70
     0
  9
$UCSORGTOP
 10
0.0
 20
0.0
 30
0.0
  9
$UCSORGBOTTOM
 10
0.0
 20
0.0
 30
0.0
  9
$UCSORGLEFT
 10
0.0
 20
0.0
 30
0.0
  9
$UCSORGRIGHT
 10
0.0
 20
0.0
 30
0.0
  9
$UCSORGFRONT
 10
0.0
 20
0.0
 30
0.0
  9
$UCSORGBACK
 10
0.0
 20
0.0
 30
0.0
  9
$PUCSBASE
  2

  9
$PUCSNAME
  2

  9
$PUCSORG
 10
0.0
 20
0.0
 30
0.0
  9
$PUCSXDIR
 10
1.0
 20
0.0
 30
0.0
  9
$PUCSYDIR
 10
0.0
 20
1.0
 30
0.0
  9
$PUCSORTHOREF
  2

  9
$PUCSORTHOVIEW
 70
     0
  9
$PUCSORGTOP
 10
0.0
 20
0.0
 30
0.0
  9
$PUCSORGBOTTOM
 10
0.0
 20
0.0
 30
0.0
  9
$PUCSORGLEFT
 10
0.0
 20
0.0
 30
0.0
  9
$PUCSORGRIGHT
 10
0.0
 20
0.0
 30
0.0
  9
$PUCSORGFRONT
 10
0.0
 20
0.0
 30
0.0
  9
$PUCSORGBACK
 10
0.0
 20
0.0
 30
0.0
  9
$USERI1
 70
     0
  9
$USERI2
 70
     0
  9
$USERI3
 70
     0
  9
$USERI4
 70
     0
  9
$USERI5
 70
     0
  9
$USERR1
 40
0.0
  9
$USERR2
 40
0.0
  9
$USERR3
 40
0.0
  9
$USERR4
 40
0.0
  9
$USERR5
 40
2.5
  9
$WORLDVIEW
 70
     1
  9
$SHADEDGE
 70
     3
  9
$SHADEDIF
 70
    70
  9
$TILEMODE
 70
     1
  9
$MAXACTVP
 70
    64
  9
$PINSBASE
 10
0.0
 20
0.0
 30
0.0
  9
$PLIMCHECK
 70
     0
  9
$PEXTMIN
 10
1.000000000000000E+20
 20
1.000000000000000E+20
 30
1.000000000000000E+20
  9
$PEXTMAX
 10
-1.000000000000000E+20
 20
-1.000000000000000E+20
 30
-1.000000000000000E+20
  9
$PLIMMIN
 10
0.0
 20
0.0
  9
$PLIMMAX
 10
12.0
 20
9.0
  9
$UNITMODE
 70
     0
  9
$VISRETAIN
 70
     1
  9
$PLINEGEN
 70
     0
  9
$PSLTSCALE
 70
     1
  9
$TREEDEPTH
 70
  3020
  9
$CMLSTYLE
  2
Standard
  9
$CMLJUST
 70
     0
  9
$CMLSCALE
 40
1.0
  9
$PROXYGRAPHICS
 70
     1
  9
$MEASUREMENT
 70
     0
  9
$CELWEIGHT
370
    -1
  9
$ENDCAPS
280
     0
  9
$JOINSTYLE
280
     0
  9
$LWDISPLAY
290
     0
  9
$INSUNITS
 70
     0
  9
$HYPERLINKBASE
  1

  9
$STYLESHEET
  1

  9
$XEDIT
290
     1
  9
$CEPSNTYPE
380
     0
  9
$PSTYLEMODE
290
     1
  9
$FINGERPRINTGUID
  2
{7BAC09DB-C4D0-41DB-8C07-4C6808ADD930}
  9
$VERSIONGUID
  2
{863548A7-20AA-466B-BE16-83F8570B226B}
  9
$EXTNAMES
290
     1
  9
$PSVPSCALE
 40
0.0
  9
$OLESTARTUP
290
     0
  0
ENDSEC
  0
SECTION
  2
CLASSES
  0
CLASS
  1
ACDBDICTIONARYWDFLT
  2
AcDbDictionaryWithDefault
  3
ObjectDBX Classes
 90
        0
280
     0
281
     0
  0
CLASS
  1
MATERIAL
  2
AcDbMaterial
  3
ObjectDBX Classes
 90
     1153
280
     0
281
     0
  0
CLASS
  1
VISUALSTYLE
  2
AcDbVisualStyle
  3
ObjectDBX Classes
 90
     4095
280
     0
281
     0
  0
CLASS
  1
SCALE
  2
AcDbScale
  3
ObjectDBX Classes
 90
     1153
280
     0
281
     0
  0
CLASS
  1
TABLESTYLE
  2
AcDbTableStyle
  3
ObjectDBX Classes
 90
     4095
280
     0
281
     0
  0
CLASS
  1
MLEADERSTYLE
  2
AcDbMLeaderStyle
  3
ACDB_MLEADERSTYLE_CLASS
 90
     4095
280
     0
281
     0
  0
CLASS
  1
VLO-VL
  2
vlo_VL
  3
VL|AutoLISP based application
 90
      129
280
     0
281
     0
  0
CLASS
  1
DICTIONARYVAR
  2
AcDbDictionaryVar
  3
ObjectDBX Classes
 90
        0
280
     0
281
     0
  0
CLASS
  1
CELLSTYLEMAP
  2
AcDbCellStyleMap
  3
ObjectDBX Classes
 90
     1152
280
     0
281
     0
  0
CLASS
  1
DIMASSOC
  2
AcDbDimAssoc
  3
"AcDbDimAssoc|Product Desc:     AcDim ARX App For Dimension|Company:          Autodesk, Inc.|WEB Address:      www.autodesk.com"
 90
    32768
280
     0
281
     0
  0
CLASS
  1
SORTENTSTABLE
  2
AcDbSortentsTable
  3
ObjectDBX Classes
 90
        0
280
     0
281
     0
  0
CLASS
  1
ACDBPLACEHOLDER
  2
AcDbPlaceHolder
  3
ObjectDBX Classes
 90
        0
280
     0
281
     0
  0
CLASS
  1
LAYOUT
  2
AcDbLayout
  3
ObjectDBX Classes
 90
        0
280
     0
281
     0
  0
ENDSEC
  0
SECTION
  2
TABLES
  0
TABLE
  2
VPORT
  5
5F02
330
0
100
AcDbSymbolTable
 70
     1
  0
VPORT
  5
5F73
330
5F02
100
AcDbSymbolTableRecord
100
AcDbViewportTableRecord
  2
*ACTIVE
 70
     0
 10
0.0
 20
0.0
 11
1.0
 21
1.0
 12
1118.945502076453
 22
136.9721553717048
 13
0.0
 23
0.0
 14
0.5
 24
0.5
 15
0.5
 25
0.5
 16
0.0
 26
0.0
 36
1.0
 17
0.0
 27
0.0
 37
0.0
 40
135.7064695992889
 41
1.522756827048114
 42
50.0
 43
0.0
 44
0.0
 50
0.0
 51
0.0
 71
     0
 72
  1000
 73
     1
 74
     3
 75
     0
 76
     0
 77
     0
 78
     0
281
     0
 65
     1
110
0.0
120
0.0
130
0.0
111
1.0
121
0.0
131
0.0
112
0.0
122
1.0
132
0.0
 79
     0
146
0.0
  0
ENDTAB
  0
TABLE
  2
LTYPE
  5
5EFF
330
0
100
AcDbSymbolTable
 70
     4
  0
LTYPE
  5
5F5C
330
5EFF
100
AcDbSymbolTableRecord
100
AcDbLinetypeTableRecord
  2
ByBlock
 70
     0
  3

 72
    65
 73
     0
 40
0.0
  0
LTYPE
  5
5F5D
330
5EFF
100
AcDbSymbolTableRecord
100
AcDbLinetypeTableRecord
  2
ByLayer
 70
     0
  3

 72
    65
 73
     0
 40
0.0
  0
LTYPE
  5
5F5E
330
5EFF
100
AcDbSymbolTableRecord
100
AcDbLinetypeTableRecord
  2
CONTINUOUS
 70
     0
  3
Solid line
 72
    65
 73
     0
 40
0.0
  0
LTYPE
  5
5F74
330
5EFF
100
AcDbSymbolTableRecord
100
AcDbLinetypeTableRecord
  2
CENTER2
 70
     0
  3
Center (.5x) ___ _ ___ _ ___ _ ___ _ ___ _ ___
 72
    65
 73
     4
 40
28.575
 49
19.05
 74
     0
 49
-3.174999999999998
 74
     0
 49
3.174999999999998
 74
     0
 49
-3.174999999999998
 74
     0
  0
LTYPE
  5
5F75
330
5EFF
100
AcDbSymbolTableRecord
100
AcDbLinetypeTableRecord
  2
HIDDEN2
 70
     0
  3
Hidden (.5x) _ _ _ _ _ _ _ _ _ _ _ _ _ _ _ _ _
 72
    65
 73
     2
 40
4.762499999999998
 49
3.174999999999998
 74
     0
 49
-1.587499999999999
 74
     0
  0
ENDTAB
  0
TABLE
  2
LAYER
  5
5EFC
102
{ACAD_XDICTIONARY
360
61B7
102
}
330
0
100
AcDbSymbolTable
 70
     5
  0
LAYER
  5
5F56
102
{ACAD_XDICTIONARY
360
60F4
102
}
330
5EFC
100
AcDbSymbolTableRecord
100
AcDbLayerTableRecord
  2
0
 70
     0
 62
     7
  6
CONTINUOUS
370
    -3
390
5F09
  0
LAYER
  5
5F72
102
{ACAD_XDICTIONARY
360
60F6
102
}
330
5EFC
100
AcDbSymbolTableRecord
100
AcDbLayerTableRecord
  2
标注
 70
     0
 62
    80
  6
CONTINUOUS
370
    -3
390
5F09
  0
LAYER
  5
5F7D
102
{ACAD_XDICTIONARY
360
60F8
102
}
330
5EFC
100
AcDbSymbolTableRecord
100
AcDbLayerTableRecord
  2
中心线
 70
     0
 62
     1
  6
CENTER2
370
    -3
390
5F09
  0
LAYER
  5
5F7E
102
{ACAD_XDICTIONARY
360
60FA
102
}
330
5EFC
100
AcDbSymbolTableRecord
100
AcDbLayerTableRecord
  2
虚线
 70
     0
 62
     4
  6
HIDDEN2
370
    -3
390
5F09
  0
LAYER
  5
5F7F
330
5EFC
100
AcDbSymbolTableRecord
100
AcDbLayerTableRecord
  2
DEFPOINTS
 70
     0
 62
     7
  6
CONTINUOUS
290
     0
370
    -3
390
5F09
  0
ENDTAB
  0
TABLE
  2
STYLE
  5
5EFD
330
0
100
AcDbSymbolTable
 70
     1
  0
STYLE
  5
5F57
330
5EFD
100
AcDbSymbolTableRecord
100
AcDbTextStyleTableRecord
  2
STANDARD
 70
     0
 40
0.0
 41
1.0
 50
0.0
 71
     0
 42
0.2
  3
arial.ttf
  4

1001
ACAD
1000
Arial
1071
       34
  0
ENDTAB
  0
TABLE
  2
VIEW
  5
5F00
330
0
100
AcDbSymbolTable
 70
     0
  0
ENDTAB
  0
TABLE
  2
UCS
  5
5F01
330
0
100
AcDbSymbolTable
 70
     0
  0
ENDTAB
  0
TABLE
  2
APPID
  5
5F03
330
0
100
AcDbSymbolTable
 70
    29
  0
APPID
  5
5F58
330
5F03
100
AcDbSymbolTableRecord
100
AcDbRegAppTableRecord
  2
ACAD
 70
     0
  0
APPID
  5
5F5F
330
5F03
100
AcDbSymbolTableRecord
100
AcDbRegAppTableRecord
  2
ACADANNOTATIVE
 70
     0
  0
APPID
  5
5F69
330
5F03
100
AcDbSymbolTableRecord
100
AcDbRegAppTableRecord
  2
ACAD_MLEADERVER
 70
     0
  0
APPID
  5
5F84
330
5F03
100
AcDbSymbolTableRecord
100
AcDbRegAppTableRecord
  2
ACAECLAYERSTANDARD
 70
     0
  0
APPID
  5
5F85
330
5F03
100
AcDbSymbolTableRecord
100
AcDbRegAppTableRecord
  2
ACAD_DSTYLE_DIMEXT_LENGTH
 70
     0
  0
APPID
  5
5F86
330
5F03
100
AcDbSymbolTableRecord
100
AcDbRegAppTableRecord
  2
ACAD_DSTYLE_DIMEXT_ENABLED
 70
     0
  0
APPID
  5
5F87
330
5F03
100
AcDbSymbolTableRecord
100
AcDbRegAppTableRecord
  2
ACAD_DSTYLE_DIMJOGGED_JOGA
 70
     0
  0
APPID
  5
5F88
330
5F03
100
AcDbSymbolTableRecord
100
AcDbRegAppTableRecord
  2
ACAD_DSTYLE_DIMARC_LENGTH_
 70
     0
  0
APPID
  5
5F89
330
5F03
100
AcDbSymbolTableRecord
100
AcDbRegAppTableRecord
  2
ACAD_PSEXT
 70
     0
  0
APPID
  5
5F8A
330
5F03
100
AcDbSymbolTableRecord
100
AcDbRegAppTableRecord
  2
MCAD_NO_VIS
 70
     0
  0
APPID
  5
5F8B
330
5F03
100
AcDbSymbolTableRecord
100
AcDbRegAppTableRecord
  2
ACAD_TEMP_GRAPHIC
 70
     0
  0
APPID
  5
5F8C
330
5F03
100
AcDbSymbolTableRecord
100
AcDbRegAppTableRecord
  2
AD_DRAW
 70
     0
  0
APPID
  5
5F8D
330
5F03
100
AcDbSymbolTableRecord
100
AcDbRegAppTableRecord
  2
ACATTRIBSERVICES
 70
     0
  0
APPID
  5
5F8E
330
5F03
100
AcDbSymbolTableRecord
100
AcDbRegAppTableRecord
  2
DESIGNERASSEMBLIES
 70
     0
  0
APPID
  5
5F8F
330
5F03
100
AcDbSymbolTableRecord
100
AcDbRegAppTableRecord
  2
ACADM_DIM_EDIT
 70
     0
  0
APPID
  5
5F90
330
5F03
100
AcDbSymbolTableRecord
100
AcDbRegAppTableRecord
  2
AMDT_DM_ADJ
 70
     0
  0
APPID
  5
5F91
330
5F03
100
AcDbSymbolTableRecord
100
AcDbRegAppTableRecord
  2
ACAD_DSTYLE_DIMJAG
 70
     0
  0
APPID
  5
5F92
330
5F03
100
AcDbSymbolTableRecord
100
AcDbRegAppTableRecord
  2
ACAD_DSTYLE_DIMBREAK
 70
     0
  0
APPID
  5
5F93
330
5F03
100
AcDbSymbolTableRecord
100
AcDbRegAppTableRecord
  2
ACAD_DSTYLE_DIMTALN
 70
     0
  0
APPID
  5
5F94
330
5F03
100
AcDbSymbolTableRecord
100
AcDbRegAppTableRecord
  2
GENIUS_GENODEF_13
 70
     0
  0
APPID
  5
5F95
330
5F03
100
AcDbSymbolTableRecord
100
AcDbRegAppTableRecord
  2
GENIUS_GENOBJ-N-FIL_13
 70
     0
  0
APPID
  5
5F96
330
5F03
100
AcDbSymbolTableRecord
100
AcDbRegAppTableRecord
  2
ACAD_EXEMPT_FROM_CAD_STANDARDS
 70
     0
  0
APPID
  5
5F97
330
5F03
100
AcDbSymbolTableRecord
100
AcDbRegAppTableRecord
  2
ACAD_DSTYLE_DIM_LINETYPE
 70
     0
  0
APPID
  5
5F98
330
5F03
100
AcDbSymbolTableRecord
100
AcDbRegAppTableRecord
  2
ACAD_DSTYLE_DIM_EXT1_LINETYPE
 70
     0
  0
APPID
  5
5F99
330
5F03
100
AcDbSymbolTableRecord
100
AcDbRegAppTableRecord
  2
ACAD_DSTYLE_DIM_EXT2_LINETYPE
 70
     0
  0
APPID
  5
5F9A
330
5F03
100
AcDbSymbolTableRecord
100
AcDbRegAppTableRecord
  2
ACAD_DSTYLE_DIMRADIAL_EXTENSION
 70
     0
  0
APPID
  5
6488
330
5F03
100
AcDbSymbolTableRecord
100
AcDbRegAppTableRecord
  2
AcadAnnoPO
 70
     0
  0
APPID
  5
6F89
330
5F03
100
AcDbSymbolTableRecord
100
AcDbRegAppTableRecord
  2
GENIUS_GENFIL_13
 70
     0
  0
APPID
  5
6F8A
330
5F03
100
AcDbSymbolTableRecord
100
AcDbRegAppTableRecord
  2
GENIUS_GENOBJ-N-CHA_13
 70
     0
  0
ENDTAB
  0
TABLE
  2
DIMSTYLE
  5
5F04
330
0
100
AcDbSymbolTable
 70
     5
100
AcDbDimStyleTable
 71
     2
340
5F9B
340
5F59
  0
DIMSTYLE
105
5F59
102
{ACAD_REACTORS
330
7A4F
102
}
330
5F04
100
AcDbSymbolTableRecord
100
AcDbDimStyleTableRecord
  2
STANDARD
 70
     0
 41
0.65
 73
     0
 74
     0
140
0.65
176
     3
177
     3
178
     3
271
     3
272
     3
276
     2
277
     5
279
     2
284
     8
285
     8
286
     8
340
5F57
371
    13
372
    13
1001
ACAD_DSTYLE_DIMJAG
1070
   388
1040
1.5
1001
ACAD_DSTYLE_DIMTALN
1070
   392
1070
     0
1001
ACAD_DSTYLE_DIM_LINETYPE
1070
   380
1005
5F5E
1001
ACAD_DSTYLE_DIM_EXT1_LINETYPE
1070
   381
1005
5F5E
1001
ACAD_DSTYLE_DIM_EXT2_LINETYPE
1070
   382
1005
5F5E
  0
DIMSTYLE
105
5F9B
102
{ACAD_REACTORS
330
7A01
330
7A0F
330
7A1D
330
7A2B
330
7A41
330
7A71
330
7A8C
330
7A9A
330
7AA8
330
7ACC
330
7ADA
330
7AE8
330
7AF6
330
7B19
330
7B27
330
7B40
330
7B4A
102
}
330
5F04
100
AcDbSymbolTableRecord
100
AcDbDimStyleTableRecord
  2
副本STANDARD
 70
     0
  3
"
  4
"
 41
0.65
 42
0.88
 43
0.015
 44
0.32
 73
     0
 74
     0
 78
     8
140
0.65
143
0.03937
147
0.3
171
     1
172
     1
176
   256
177
   256
178
   256
271
     3
272
     3
274
     1
276
     2
277
     5
279
     2
284
     8
285
     8
286
     8
340
5F57
1001
ACAD_DSTYLE_DIMJAG
1070
   388
1040
1.5
1001
ACAD_DSTYLE_DIMTALN
1070
   392
1070
     0
  0
DIMSTYLE
105
78A0
330
5F04
100
AcDbSymbolTableRecord
100
AcDbDimStyleTableRecord
  2
中14+
 70
     0
  4
"
 41
14.0
 42
10.0
 43
1.0
 44
2.0
 73
     0
 74
     0
 78
     8
140
14.0
141
2.0
143
0.03937007874016
147
5.0
171
     3
172
     1
179
     1
271
     1
272
     1
273
     7
274
     3
278
    44
283
     0
284
     8
340
5F57
1001
ACAD_DSTYLE_DIMJAG
1070
   388
1040
1.5
1001
ACAD_DSTYLE_DIMBREAK
1070
   391
1040
0.2
1001
ACAD_DSTYLE_DIMTALN
1070
   392
1070
     0
  0
DIMSTYLE
105
78A1
330
5F04
100
AcDbSymbolTableRecord
100
AcDbDimStyleTableRecord
  2
毫米英寸Standard
 70
     0
  3
mm
  4
"
 41
14.0
 42
20.0
 44
8.0
 73
     0
 74
     0
 78
     8
 79
     2
140
14.0
143
0.03937
147
8.0
170
     1
171
     3
172
     1
176
   256
177
   256
178
   256
179
     1
271
     1
272
     1
273
     7
274
     3
278
    44
340
5F57
1001
ACAD_DSTYLE_DIMBREAK
1070
   391
1040
0.125
1001
ACAD_DSTYLE_DIMJAG
1070
   388
1040
1.5
1001
ACAD_DSTYLE_DIMTALN
1070
   392
1070
     0
  0
ENDTAB
  0
TABLE
  2
BLOCK_RECORD
  5
5EFB
330
0
100
AcDbSymbolTable
 70
    39
  0
BLOCK_RECORD
  5
5F6E
102
{ACAD_XDICTIONARY
360
654F
102
}
330
5EFB
100
AcDbSymbolTableRecord
100
AcDbBlockTableRecord
  2
*Model_Space
340
5F71
  0
BLOCK_RECORD
  5
5F6A
330
5EFB
100
AcDbSymbolTableRecord
100
AcDbBlockTableRecord
  2
*Paper_Space
340
5F6D
  0
BLOCK_RECORD
  5
7651
330
5EFB
100
AcDbSymbolTableRecord
100
AcDbBlockTableRecord
  2
*D0
340
0
  0
BLOCK_RECORD
  5
765F
330
5EFB
100
AcDbSymbolTableRecord
100
AcDbBlockTableRecord
  2
*D1
340
0
  0
BLOCK_RECORD
  5
766D
330
5EFB
100
AcDbSymbolTableRecord
100
AcDbBlockTableRecord
  2
*D2
340
0
  0
BLOCK_RECORD
  5
767B
330
5EFB
100
AcDbSymbolTableRecord
100
AcDbBlockTableRecord
  2
*D3
340
0
  0
BLOCK_RECORD
  5
7689
330
5EFB
100
AcDbSymbolTableRecord
100
AcDbBlockTableRecord
  2
*D4
340
0
  0
BLOCK_RECORD
  5
7697
330
5EFB
100
AcDbSymbolTableRecord
100
AcDbBlockTableRecord
  2
*D5
340
0
  0
BLOCK_RECORD
  5
76A5
330
5EFB
100
AcDbSymbolTableRecord
100
AcDbBlockTableRecord
  2
*D6
340
0
  0
BLOCK_RECORD
  5
76B3
330
5EFB
100
AcDbSymbolTableRecord
100
AcDbBlockTableRecord
  2
*D7
340
0
  0
BLOCK_RECORD
  5
76BD
330
5EFB
100
AcDbSymbolTableRecord
100
AcDbBlockTableRecord
  2
*D8
340
0
  0
BLOCK_RECORD
  5
76EB
330
5EFB
100
AcDbSymbolTableRecord
100
AcDbBlockTableRecord
  2
*D9
340
0
  0
BLOCK_RECORD
  5
770D
330
5EFB
100
AcDbSymbolTableRecord
100
AcDbBlockTableRecord
  2
*D10
340
0
  0
BLOCK_RECORD
  5
7745
330
5EFB
100
AcDbSymbolTableRecord
100
AcDbBlockTableRecord
  2
*D11
340
0
  0
BLOCK_RECORD
  5
774F
330
5EFB
100
AcDbSymbolTableRecord
100
AcDbBlockTableRecord
  2
*D12
340
0
  0
BLOCK_RECORD
  5
7765
330
5EFB
100
AcDbSymbolTableRecord
100
AcDbBlockTableRecord
  2
*D13
340
0
  0
BLOCK_RECORD
  5
7773
330
5EFB
100
AcDbSymbolTableRecord
100
AcDbBlockTableRecord
  2
*D14
340
0
  0
BLOCK_RECORD
  5
7781
330
5EFB
100
AcDbSymbolTableRecord
100
AcDbBlockTableRecord
  2
*D15
340
0
  0
BLOCK_RECORD
  5
779B
330
5EFB
100
AcDbSymbolTableRecord
100
AcDbBlockTableRecord
  2
*D16
340
0
  0
BLOCK_RECORD
  5
77A5
330
5EFB
100
AcDbSymbolTableRecord
100
AcDbBlockTableRecord
  2
*D17
340
0
  0
BLOCK_RECORD
  5
77AF
330
5EFB
100
AcDbSymbolTableRecord
100
AcDbBlockTableRecord
  2
*D18
340
0
  0
BLOCK_RECORD
  5
7A02
330
5EFB
100
AcDbSymbolTableRecord
100
AcDbBlockTableRecord
  2
*D20
340
0
  0
BLOCK_RECORD
  5
7A10
330
5EFB
100
AcDbSymbolTableRecord
100
AcDbBlockTableRecord
  2
*D21
340
0
  0
BLOCK_RECORD
  5
7A1E
330
5EFB
100
AcDbSymbolTableRecord
100
AcDbBlockTableRecord
  2
*D22
340
0
  0
BLOCK_RECORD
  5
7A2C
330
5EFB
100
AcDbSymbolTableRecord
100
AcDbBlockTableRecord
  2
*D23
340
0
  0
BLOCK_RECORD
  5
7A42
330
5EFB
100
AcDbSymbolTableRecord
100
AcDbBlockTableRecord
  2
*D25
340
0
  0
BLOCK_RECORD
  5
7A50
330
5EFB
100
AcDbSymbolTableRecord
100
AcDbBlockTableRecord
  2
*D26
340
0
  0
BLOCK_RECORD
  5
7A72
330
5EFB
100
AcDbSymbolTableRecord
100
AcDbBlockTableRecord
  2
*D27
340
0
  0
BLOCK_RECORD
  5
7A8D
330
5EFB
100
AcDbSymbolTableRecord
100
AcDbBlockTableRecord
  2
*D28
340
0
  0
BLOCK_RECORD
  5
7A9B
330
5EFB
100
AcDbSymbolTableRecord
100
AcDbBlockTableRecord
  2
*D29
340
0
  0
BLOCK_RECORD
  5
7AA9
330
5EFB
100
AcDbSymbolTableRecord
100
AcDbBlockTableRecord
  2
*D30
340
0
  0
BLOCK_RECORD
  5
7ACD
330
5EFB
100
AcDbSymbolTableRecord
100
AcDbBlockTableRecord
  2
*D31
340
0
  0
BLOCK_RECORD
  5
7ADB
330
5EFB
100
AcDbSymbolTableRecord
100
AcDbBlockTableRecord
  2
*D32
340
0
  0
BLOCK_RECORD
  5
7AE9
330
5EFB
100
AcDbSymbolTableRecord
100
AcDbBlockTableRecord
  2
*D33
340
0
  0
BLOCK_RECORD
  5
7AF7
330
5EFB
100
AcDbSymbolTableRecord
100
AcDbBlockTableRecord
  2
*D34
340
0
  0
BLOCK_RECORD
  5
7B1A
330
5EFB
100
AcDbSymbolTableRecord
100
AcDbBlockTableRecord
  2
*D35
340
0
  0
BLOCK_RECORD
  5
7B28
330
5EFB
100
AcDbSymbolTableRecord
100
AcDbBlockTableRecord
  2
*D36
340
0
  0
BLOCK_RECORD
  5
7B41
330
5EFB
100
AcDbSymbolTableRecord
100
AcDbBlockTableRecord
  2
*D37
340
0
  0
BLOCK_RECORD
  5
7B4B
330
5EFB
100
AcDbSymbolTableRecord
100
AcDbBlockTableRecord
  2
*D38
340
0
  0
ENDTAB
  0
ENDSEC
  0
SECTION
  2
BLOCKS
  0
BLOCK
  5
5F6F
330
5F6E
100
AcDbEntity
  8
0
100
AcDbBlockBegin
  2
*Model_Space
 70
     0
 10
0.0
 20
0.0
 30
0.0
  3
*Model_Space
  1

  0
ENDBLK
  5
5F70
330
5F6E
100
AcDbEntity
  8
0
100
AcDbBlockEnd
  0
BLOCK
  5
5F6B
330
5F6A
100
AcDbEntity
 67
     1
  8
0
100
AcDbBlockBegin
  2
*Paper_Space
 70
     0
 10
0.0
 20
0.0
 30
0.0
  3
*Paper_Space
  1

  0
ENDBLK
  5
5F6C
330
5F6A
100
AcDbEntity
 67
     1
  8
0
100
AcDbBlockEnd
  0
BLOCK
  5
7652
330
7651
100
AcDbEntity
  8
0
100
AcDbBlockBegin
  2
*D0
 70
     1
 10
0.0
 20
0.0
 30
0.0
  3
*D0
  1

  0
LINE
  5
77CA
330
7651
100
AcDbEntity
  8
标注
370
    -2
100
AcDbLine
 10
1094.219037908409
 20
138.162998433621
 30
0.0
 11
1094.219037908409
 21
135.1913252291895
 31
0.0
  0
LINE
  5
77CB
330
7651
100
AcDbEntity
  8
标注
370
    -2
100
AcDbLine
 10
1112.219037908332
 20
138.162998433621
 30
0.0
 11
1112.219037908332
 21
135.1913252291895
 31
0.0
  0
LINE
  5
77CC
330
7651
100
AcDbEntity
  8
标注
370
    -2
100
AcDbLine
 10
1094.869037908409
 20
135.5113252291895
 30
0.0
 11
1102.323574061167
 21
135.5113252291895
 31
0.0
  0
LINE
  5
77CD
330
7651
100
AcDbEntity
  8
标注
370
    -2
100
AcDbLine
 10
1111.569037908331
 20
135.5113252291895
 30
0.0
 11
1104.114501755574
 21
135.5113252291895
 31
0.0
  0
SOLID
  5
77CE
330
7651
100
AcDbEntity
  8
标注
100
AcDbTrace
 10
1094.869037908409
 20
135.6196585625228
 30
0.0
 11
1094.869037908409
 21
135.4029918958562
 31
0.0
 12
1094.219037908409
 22
135.5113252291895
 32
0.0
 13
1094.219037908409
 23
135.5113252291895
 33
0.0
  0
SOLID
  5
77CF
330
7651
100
AcDbEntity
  8
标注
100
AcDbTrace
 10
1111.569037908331
 20
135.6196585625228
 30
0.0
 11
1111.569037908331
 21
135.4029918958562
 31
0.0
 12
1112.219037908332
 22
135.5113252291895
 32
0.0
 13
1112.219037908332
 23
135.5113252291895
 33
0.0
  0
MTEXT
  5
77D0
330
7651
100
AcDbEntity
  8
标注
100
AcDbMText
 10
1103.21903790837
 20
135.5113252291895
 30
0.0
 40
0.65
 41
0.0
 71
     5
 72
     1
  1
\A1;18"
 73
     1
 44
1.0
1001
ACAD
1000
MTEXTBEGIN
1070
    73
1070
     1
1070
    44
1040
1.0
1070
    74
1070
     0
1000
MTEXTEND
  0
POINT
  5
77D1
330
7651
100
AcDbEntity
  8
DEFPOINTS
 62
     0
100
AcDbPoint
 10
1094.219037908409
 20
139.0429984336211
 30
0.0
  0
POINT
  5
77D2
330
7651
100
AcDbEntity
  8
DEFPOINTS
 62
     0
100
AcDbPoint
 10
1112.219037908332
 20
139.0429984336211
 30
0.0
  0
POINT
  5
77D3
330
7651
100
AcDbEntity
  8
DEFPOINTS
 62
     0
100
AcDbPoint
 10
1112.219037908332
 20
135.5113252291895
 30
0.0
  0
ENDBLK
  5
7653
330
7651
100
AcDbEntity
  8
0
100
AcDbBlockEnd
  0
BLOCK
  5
7660
330
765F
100
AcDbEntity
  8
0
100
AcDbBlockBegin
  2
*D1
 70
     1
 10
0.0
 20
0.0
 30
0.0
  3
*D1
  1

  0
LINE
  5
77D4
330
765F
100
AcDbEntity
  8
标注
370
    -2
100
AcDbLine
 10
1113.219037908341
 20
138.162998433621
 30
0.0
 11
1113.219037908341
 21
135.1913252291895
 31
0.0
  0
LINE
  5
77D5
330
765F
100
AcDbEntity
  8
标注
370
    -2
100
AcDbLine
 10
1124.219037908293
 20
138.162998433621
 30
0.0
 11
1124.219037908293
 21
135.1913252291895
 31
0.0
  0
LINE
  5
77D6
330
765F
100
AcDbEntity
  8
标注
370
    -2
100
AcDbLine
 10
1113.869037908341
 20
135.5113252291895
 30
0.0
 11
1117.823574061114
 21
135.5113252291895
 31
0.0
  0
LINE
  5
77D7
330
765F
100
AcDbEntity
  8
标注
370
    -2
100
AcDbLine
 10
1123.569037908293
 20
135.5113252291895
 30
0.0
 11
1119.61450175552
 21
135.5113252291895
 31
0.0
  0
SOLID
  5
77D8
330
765F
100
AcDbEntity
  8
标注
100
AcDbTrace
 10
1113.869037908341
 20
135.6196585625228
 30
0.0
 11
1113.869037908341
 21
135.4029918958562
 31
0.0
 12
1113.219037908341
 22
135.5113252291895
 32
0.0
 13
1113.219037908341
 23
135.5113252291895
 33
0.0
  0
SOLID
  5
77D9
330
765F
100
AcDbEntity
  8
标注
100
AcDbTrace
 10
1123.569037908293
 20
135.6196585625228
 30
0.0
 11
1123.569037908293
 21
135.4029918958562
 31
0.0
 12
1124.219037908293
 22
135.5113252291895
 32
0.0
 13
1124.219037908293
 23
135.5113252291895
 33
0.0
  0
MTEXT
  5
77DA
330
765F
100
AcDbEntity
  8
标注
100
AcDbMText
 10
1118.719037908317
 20
135.5113252291895
 30
0.0
 40
0.65
 41
0.0
 71
     5
 72
     1
  1
\A1;11"
 73
     1
 44
1.0
1001
ACAD
1000
MTEXTBEGIN
1070
    73
1070
     1
1070
    44
1040
1.0
1070
    74
1070
     0
1000
MTEXTEND
  0
POINT
  5
77DB
330
765F
100
AcDbEntity
  8
DEFPOINTS
 62
     0
100
AcDbPoint
 10
1113.219037908341
 20
139.0429984336211
 30
0.0
  0
POINT
  5
77DC
330
765F
100
AcDbEntity
  8
DEFPOINTS
 62
     0
100
AcDbPoint
 10
1124.219037908293
 20
139.0429984336211
 30
0.0
  0
POINT
  5
77DD
330
765F
100
AcDbEntity
  8
DEFPOINTS
 62
     0
100
AcDbPoint
 10
1124.219037908293
 20
135.5113252291895
 30
0.0
  0
ENDBLK
  5
7661
330
765F
100
AcDbEntity
  8
0
100
AcDbBlockEnd
  0
BLOCK
  5
766E
330
766D
100
AcDbEntity
  8
0
100
AcDbBlockBegin
  2
*D2
 70
     1
 10
0.0
 20
0.0
 30
0.0
  3
*D2
  1

  0
LINE
  5
77DE
330
766D
100
AcDbEntity
  8
标注
370
    -2
100
AcDbLine
 10
1093.732738695828
 20
138.6492976462309
 30
0.0
 11
1090.728333272927
 21
138.6492976462309
 31
0.0
  0
LINE
  5
77DF
330
766D
100
AcDbEntity
  8
标注
370
    -2
100
AcDbLine
 10
1093.732738695828
 20
156.6492976461727
 30
0.0
 11
1090.728333272927
 21
156.6492976461727
 31
0.0
  0
LINE
  5
77E0
330
766D
100
AcDbEntity
  8
标注
370
    -2
100
AcDbLine
 10
1091.048333272927
 20
139.2992976462309
 30
0.0
 11
1091.048333272927
 21
146.7538337989986
 31
0.0
  0
LINE
  5
77E1
330
766D
100
AcDbEntity
  8
标注
370
    -2
100
AcDbLine
 10
1091.048333272927
 20
155.9992976461727
 30
0.0
 11
1091.048333272927
 21
148.5447614934051
 31
0.0
  0
SOLID
  5
77E2
330
766D
100
AcDbEntity
  8
标注
100
AcDbTrace
 10
1090.939999939593
 20
139.2992976462309
 30
0.0
 11
1091.15666660626
 21
139.2992976462309
 31
0.0
 12
1091.048333272927
 22
138.6492976462309
 32
0.0
 13
1091.048333272927
 23
138.6492976462309
 33
0.0
  0
SOLID
  5
77E3
330
766D
100
AcDbEntity
  8
标注
100
AcDbTrace
 10
1090.939999939593
 20
155.9992976461727
 30
0.0
 11
1091.15666660626
 21
155.9992976461727
 31
0.0
 12
1091.048333272927
 22
156.6492976461727
 32
0.0
 13
1091.048333272927
 23
156.6492976461727
 33
0.0
  0
MTEXT
  5
77E4
330
766D
100
AcDbEntity
  8
标注
100
AcDbMText
 10
1091.048333272927
 20
147.649297646202
 30
0.0
 40
0.65
 41
0.0
 71
     5
 72
     1
  1
\A1;18"
 11
0.0000000000000001
 21
1.0
 31
0.0
 73
     1
 44
1.0
1001
ACAD
1000
MTEXTBEGIN
1070
    73
1070
     1
1070
    44
1040
1.0
1070
    74
1070
     0
1000
MTEXTEND
  0
POINT
  5
77E5
330
766D
100
AcDbEntity
  8
DEFPOINTS
 62
     0
100
AcDbPoint
 10
1094.612738695828
 20
138.6492976462309
 30
0.0
  0
POINT
  5
77E6
330
766D
100
AcDbEntity
  8
DEFPOINTS
 62
     0
100
AcDbPoint
 10
1094.612738695828
 20
156.6492976461727
 30
0.0
  0
POINT
  5
77E7
330
766D
100
AcDbEntity
  8
DEFPOINTS
 62
     0
100
AcDbPoint
 10
1091.048333272927
 20
156.6492976461727
 30
0.0
  0
ENDBLK
  5
766F
330
766D
100
AcDbEntity
  8
0
100
AcDbBlockEnd
  0
BLOCK
  5
767C
330
767B
100
AcDbEntity
  8
0
100
AcDbBlockBegin
  2
*D3
 70
     1
 10
0.0
 20
0.0
 30
0.0
  3
*D3
  1

  0
LINE
  5
77E8
330
767B
100
AcDbEntity
  8
标注
370
    -2
100
AcDbLine
 10
1093.339037908409
 20
137.6492976462309
 30
0.0
 11
1088.629100061997
 21
137.6492976462309
 31
0.0
  0
LINE
  5
77E9
330
767B
100
AcDbEntity
  8
标注
370
    -2
100
AcDbLine
 10
1093.339037908296
 20
157.6492976461445
 30
0.0
 11
1088.629100061997
 21
157.6492976461445
 31
0.0
  0
LINE
  5
77EA
330
767B
100
AcDbEntity
  8
标注
370
    -2
100
AcDbLine
 10
1088.949100061997
 20
138.2992976462309
 30
0.0
 11
1088.949100061997
 21
146.7176980554645
 31
0.0
  0
LINE
  5
77EB
330
767B
100
AcDbEntity
  8
标注
370
    -2
100
AcDbLine
 10
1088.949100061997
 20
156.9992976461445
 30
0.0
 11
1088.949100061997
 21
148.5808972369108
 31
0.0
  0
SOLID
  5
77EC
330
767B
100
AcDbEntity
  8
标注
100
AcDbTrace
 10
1088.840766728663
 20
138.2992976462309
 30
0.0
 11
1089.05743339533
 21
138.2992976462309
 31
0.0
 12
1088.949100061997
 22
137.6492976462309
 32
0.0
 13
1088.949100061997
 23
137.6492976462309
 33
0.0
  0
SOLID
  5
77ED
330
767B
100
AcDbEntity
  8
标注
100
AcDbTrace
 10
1088.840766728663
 20
156.9992976461445
 30
0.0
 11
1089.05743339533
 21
156.9992976461445
 31
0.0
 12
1088.949100061997
 22
157.6492976461445
 32
0.0
 13
1088.949100061997
 23
157.6492976461445
 33
0.0
  0
MTEXT
  5
77EE
330
767B
100
AcDbEntity
  8
标注
100
AcDbMText
 10
1088.949100061997
 20
147.6492976461879
 30
0.0
 40
0.65
 41
0.0
 71
     5
 72
     1
  1
\A1;20"
 11
0.0000000000000001
 21
1.0
 31
0.0
 73
     1
 44
1.0
1001
ACAD
1000
MTEXTBEGIN
1070
    73
1070
     1
1070
    44
1040
1.0
1070
    74
1070
     0
1000
MTEXTEND
  0
POINT
  5
77EF
330
767B
100
AcDbEntity
  8
DEFPOINTS
 62
     0
100
AcDbPoint
 10
1094.219037908409
 20
137.6492976462309
 30
0.0
  0
POINT
  5
77F0
330
767B
100
AcDbEntity
  8
DEFPOINTS
 62
     0
100
AcDbPoint
 10
1094.219037908296
 20
157.6492976461445
 30
0.0
  0
POINT
  5
77F1
330
767B
100
AcDbEntity
  8
DEFPOINTS
 62
     0
100
AcDbPoint
 10
1088.949100061997
 20
157.6492976461445
 30
0.0
  0
ENDBLK
  5
767D
330
767B
100
AcDbEntity
  8
0
100
AcDbBlockEnd
  0
BLOCK
  5
768A
330
7689
100
AcDbEntity
  8
0
100
AcDbBlockBegin
  2
*D4
 70
     1
 10
0.0
 20
0.0
 30
0.0
  3
*D4
  1

  0
LINE
  5
77F2
330
7689
100
AcDbEntity
  8
标注
370
    -2
100
AcDbLine
 10
1124.705337120903
 20
138.6492976462309
 30
0.0
 11
1127.230265449214
 21
138.6492976462309
 31
0.0
  0
LINE
  5
77F3
330
7689
100
AcDbEntity
  8
标注
370
    -2
100
AcDbLine
 10
1124.705337120903
 20
153.6492976461727
 30
0.0
 11
1127.230265449214
 21
153.6492976461727
 31
0.0
  0
LINE
  5
77F4
330
7689
100
AcDbEntity
  8
标注
370
    -2
100
AcDbLine
 10
1126.910265449214
 20
139.2992976462309
 30
0.0
 11
1126.910265449214
 21
145.2538337989986
 31
0.0
  0
LINE
  5
77F5
330
7689
100
AcDbEntity
  8
标注
370
    -2
100
AcDbLine
 10
1126.910265449214
 20
152.9992976461727
 30
0.0
 11
1126.910265449214
 21
147.0447614934051
 31
0.0
  0
SOLID
  5
77F6
330
7689
100
AcDbEntity
  8
标注
100
AcDbTrace
 10
1126.801932115881
 20
139.2992976462309
 30
0.0
 11
1127.018598782548
 21
139.2992976462309
 31
0.0
 12
1126.910265449214
 22
138.6492976462309
 32
0.0
 13
1126.910265449214
 23
138.6492976462309
 33
0.0
  0
SOLID
  5
77F7
330
7689
100
AcDbEntity
  8
标注
100
AcDbTrace
 10
1126.801932115881
 20
152.9992976461727
 30
0.0
 11
1127.018598782548
 21
152.9992976461727
 31
0.0
 12
1126.910265449214
 22
153.6492976461727
 32
0.0
 13
1126.910265449214
 23
153.6492976461727
 33
0.0
  0
MTEXT
  5
77F8
330
7689
100
AcDbEntity
  8
标注
100
AcDbMText
 10
1126.910265449214
 20
146.149297646202
 30
0.0
 40
0.65
 41
0.0
 71
     5
 72
     1
  1
\A1;15"
 11
0.0000000000000001
 21
1.0
 31
0.0
 73
     1
 44
1.0
1001
ACAD
1000
MTEXTBEGIN
1070
    73
1070
     1
1070
    44
1040
1.0
1070
    74
1070
     0
1000
MTEXTEND
  0
POINT
  5
77F9
330
7689
100
AcDbEntity
  8
DEFPOINTS
 62
     0
100
AcDbPoint
 10
1123.825337120903
 20
138.6492976462309
 30
0.0
  0
POINT
  5
77FA
330
7689
100
AcDbEntity
  8
DEFPOINTS
 62
     0
100
AcDbPoint
 10
1123.825337120903
 20
153.6492976461727
 30
0.0
  0
POINT
  5
77FB
330
7689
100
AcDbEntity
  8
DEFPOINTS
 62
     0
100
AcDbPoint
 10
1126.910265449214
 20
153.6492976461727
 30
0.0
  0
ENDBLK
  5
768B
330
7689
100
AcDbEntity
  8
0
100
AcDbBlockEnd
  0
BLOCK
  5
7698
330
7697
100
AcDbEntity
  8
0
100
AcDbBlockBegin
  2
*D5
 70
     1
 10
0.0
 20
0.0
 30
0.0
  3
*D5
  1

  0
LINE
  5
77FC
330
7697
100
AcDbEntity
  8
标注
370
    -2
100
AcDbLine
 10
1125.099037908293
 20
137.6492976462309
 30
0.0
 11
1128.947244791557
 21
137.6492976462309
 31
0.0
  0
LINE
  5
77FD
330
7697
100
AcDbEntity
  8
标注
370
    -2
100
AcDbLine
 10
1125.099037908293
 20
154.6492976461727
 30
0.0
 11
1128.947244791557
 21
154.6492976461727
 31
0.0
  0
LINE
  5
77FE
330
7697
100
AcDbEntity
  8
标注
370
    -2
100
AcDbLine
 10
1128.627244791557
 20
138.2992976462309
 30
0.0
 11
1128.627244791557
 21
145.2538337989986
 31
0.0
  0
LINE
  5
77FF
330
7697
100
AcDbEntity
  8
标注
370
    -2
100
AcDbLine
 10
1128.627244791557
 20
153.9992976461727
 30
0.0
 11
1128.627244791557
 21
147.0447614934051
 31
0.0
  0
SOLID
  5
7800
330
7697
100
AcDbEntity
  8
标注
100
AcDbTrace
 10
1128.518911458224
 20
138.2992976462309
 30
0.0
 11
1128.735578124891
 21
138.2992976462309
 31
0.0
 12
1128.627244791557
 22
137.6492976462309
 32
0.0
 13
1128.627244791557
 23
137.6492976462309
 33
0.0
  0
SOLID
  5
7801
330
7697
100
AcDbEntity
  8
标注
100
AcDbTrace
 10
1128.518911458224
 20
153.9992976461727
 30
0.0
 11
1128.735578124891
 21
153.9992976461727
 31
0.0
 12
1128.627244791557
 22
154.6492976461727
 32
0.0
 13
1128.627244791557
 23
154.6492976461727
 33
0.0
  0
MTEXT
  5
7802
330
7697
100
AcDbEntity
  8
标注
100
AcDbMText
 10
1128.627244791557
 20
146.149297646202
 30
0.0
 40
0.65
 41
0.0
 71
     5
 72
     1
  1
\A1;17"
 11
0.0000000000000001
 21
1.0
 31
0.0
 73
     1
 44
1.0
1001
ACAD
1000
MTEXTBEGIN
1070
    73
1070
     1
1070
    44
1040
1.0
1070
    74
1070
     0
1000
MTEXTEND
  0
POINT
  5
7803
330
7697
100
AcDbEntity
  8
DEFPOINTS
 62
     0
100
AcDbPoint
 10
1124.219037908293
 20
137.6492976462309
 30
0.0
  0
POINT
  5
7804
330
7697
100
AcDbEntity
  8
DEFPOINTS
 62
     0
100
AcDbPoint
 10
1124.219037908293
 20
154.6492976461727
 30
0.0
  0
POINT
  5
7805
330
7697
100
AcDbEntity
  8
DEFPOINTS
 62
     0
100
AcDbPoint
 10
1128.627244791557
 20
154.6492976461727
 30
0.0
  0
ENDBLK
  5
7699
330
7697
100
AcDbEntity
  8
0
100
AcDbBlockEnd
  0
BLOCK
  5
76A6
330
76A5
100
AcDbEntity
  8
0
100
AcDbBlockBegin
  2
*D6
 70
     1
 10
0.0
 20
0.0
 30
0.0
  3
*D6
  1

  0
LINE
  5
7806
330
76A5
100
AcDbEntity
  8
标注
370
    -2
100
AcDbLine
 10
1093.219037908409
 20
137.7692976462309
 30
0.0
 11
1093.219037908409
 21
133.3930756036228
 31
0.0
  0
LINE
  5
7807
330
76A5
100
AcDbEntity
  8
标注
370
    -2
100
AcDbLine
 10
1125.219037908293
 20
137.7692976462309
 30
0.0
 11
1125.219037908293
 21
133.3930756036228
 31
0.0
  0
LINE
  5
7808
330
76A5
100
AcDbEntity
  8
标注
370
    -2
100
AcDbLine
 10
1093.869037908409
 20
133.7130756036228
 30
0.0
 11
1108.293202301257
 21
133.7130756036228
 31
0.0
  0
LINE
  5
7809
330
76A5
100
AcDbEntity
  8
标注
370
    -2
100
AcDbLine
 10
1124.569037908293
 20
133.7130756036228
 30
0.0
 11
1110.144873515445
 21
133.7130756036228
 31
0.0
  0
SOLID
  5
780A
330
76A5
100
AcDbEntity
  8
标注
100
AcDbTrace
 10
1093.869037908409
 20
133.8214089369561
 30
0.0
 11
1093.869037908409
 21
133.6047422702895
 31
0.0
 12
1093.219037908409
 22
133.7130756036228
 32
0.0
 13
1093.219037908409
 23
133.7130756036228
 33
0.0
  0
SOLID
  5
780B
330
76A5
100
AcDbEntity
  8
标注
100
AcDbTrace
 10
1124.569037908293
 20
133.8214089369561
 30
0.0
 11
1124.569037908293
 21
133.6047422702895
 31
0.0
 12
1125.219037908293
 22
133.7130756036228
 32
0.0
 13
1125.219037908293
 23
133.7130756036228
 33
0.0
  0
MTEXT
  5
780C
330
76A5
100
AcDbEntity
  8
标注
100
AcDbMText
 10
1109.219037908351
 20
133.7130756036228
 30
0.0
 40
0.65
 41
0.0
 71
     5
 72
     1
  1
\A1;32"
 73
     1
 44
1.0
1001
ACAD
1000
MTEXTBEGIN
1070
    73
1070
     1
1070
    44
1040
1.0
1070
    74
1070
     0
1000
MTEXTEND
  0
POINT
  5
780D
330
76A5
100
AcDbEntity
  8
DEFPOINTS
 62
     0
100
AcDbPoint
 10
1093.219037908409
 20
138.6492976462309
 30
0.0
  0
POINT
  5
780E
330
76A5
100
AcDbEntity
  8
DEFPOINTS
 62
     0
100
AcDbPoint
 10
1125.219037908293
 20
138.6492976462309
 30
0.0
  0
POINT
  5
780F
330
76A5
100
AcDbEntity
  8
DEFPOINTS
 62
     0
100
AcDbPoint
 10
1125.219037908293
 20
133.7130756036228
 30
0.0
  0
ENDBLK
  5
76A7
330
76A5
100
AcDbEntity
  8
0
100
AcDbBlockEnd
  0
BLOCK
  5
76B4
330
76B3
100
AcDbEntity
  8
0
100
AcDbBlockBegin
  2
*D7
 70
     1
 10
0.0
 20
0.0
 30
0.0
  3
*D7
  1

  0
LINE
  5
7810
330
76B3
100
AcDbEntity
  8
标注
370
    -2
100
AcDbLine
 10
1093.87626493558
 20
156.9951357246206
 30
0.0
 11
1093.417600967974
 21
157.4557085905384
 31
0.0
  0
MTEXT
  5
7811
330
76B3
100
AcDbEntity
  8
标注
100
AcDbMText
 10
1093.600253988969
 20
158.3447249952715
 30
0.0
 40
0.65
 41
0.0
 71
     5
 72
     1
  1
\A1;5-R3/8"
 11
0.7056368732401872
 21
-0.7085736398736634
 31
0.0
 73
     1
 44
1.0
1001
ACAD
1000
MTEXTBEGIN
1070
    73
1070
     1
1070
    44
1040
1.0
1070
    74
1070
     0
1000
MTEXTEND
  0
LINE
  5
7812
330
76B3
100
AcDbEntity
  8
标注
370
    -2
100
AcDbLine
 10
1094.6127386958
 20
156.2555968587534
 30
0.0
 11
1094.334928903186
 21
156.5345628587027
 31
0.0
  0
SOLID
  5
7813
330
76B3
100
AcDbEntity
  8
标注
100
AcDbTrace
 10
1093.9530270799
 20
157.0715797192216
 30
0.0
 11
1093.79950279126
 21
156.9186917300195
 31
0.0
 12
1094.334928903186
 22
156.5345628587027
 32
0.0
 13
1094.334928903186
 23
156.5345628587027
 33
0.0
  0
POINT
  5
7814
330
76B3
100
AcDbEntity
  8
DEFPOINTS
 62
     0
100
AcDbPoint
 10
1094.334928903186
 20
156.5345628587027
 30
0.0
  0
POINT
  5
7815
330
76B3
100
AcDbEntity
  8
DEFPOINTS
 62
     0
100
AcDbPoint
 10
1094.6127386958
 20
156.2555968587534
 30
0.0
  0
ENDBLK
  5
76B5
330
76B3
100
AcDbEntity
  8
0
100
AcDbBlockEnd
  0
BLOCK
  5
76BE
330
76BD
100
AcDbEntity
  8
0
100
AcDbBlockBegin
  2
*D8
 70
     1
 10
0.0
 20
0.0
 30
0.0
  3
*D8
  1

  0
LINE
  5
7816
330
76BD
100
AcDbEntity
  8
标注
370
    -2
100
AcDbLine
 10
1124.291583090298
 20
154.1893666535615
 30
0.0
 11
1124.581953552567
 21
154.7709034061764
 31
0.0
  0
MTEXT
  5
7817
330
76BD
100
AcDbEntity
  8
标注
100
AcDbMText
 10
1124.530643726963
 20
155.8799004967975
 30
0.0
 40
0.65
 41
0.0
 71
     5
 72
     1
  1
\A1;4-R3/8"
 11
0.4467237881053878
 21
0.8946719270999691
 31
0.0
 73
     1
 44
1.0
1001
ACAD
1000
MTEXTBEGIN
1070
    73
1070
     1
1070
    44
1040
1.0
1070
    74
1070
     0
1000
MTEXTEND
  0
LINE
  5
7818
330
76BD
100
AcDbEntity
  8
标注
370
    -2
100
AcDbLine
 10
1123.825337120903
 20
153.2555968587827
 30
0.0
 11
1124.00121262803
 21
153.6078299009465
 31
0.0
  0
SOLID
  5
7819
330
76BD
100
AcDbEntity
  8
标注
100
AcDbTrace
 10
1124.194660298196
 20
154.2377617306062
 30
0.0
 11
1124.388505882401
 21
154.1409715765166
 31
0.0
 12
1124.00121262803
 22
153.6078299009465
 32
0.0
 13
1124.00121262803
 23
153.6078299009465
 33
0.0
  0
POINT
  5
781A
330
76BD
100
AcDbEntity
  8
DEFPOINTS
 62
     0
100
AcDbPoint
 10
1124.00121262803
 20
153.6078299009465
 30
0.0
  0
POINT
  5
781B
330
76BD
100
AcDbEntity
  8
DEFPOINTS
 62
     0
100
AcDbPoint
 10
1123.825337120903
 20
153.2555968587827
 30
0.0
  0
ENDBLK
  5
76BF
330
76BD
100
AcDbEntity
  8
0
100
AcDbBlockEnd
  0
BLOCK
  5
76EC
330
76EB
100
AcDbEntity
  8
0
100
AcDbBlockBegin
  2
*D9
 70
     1
 10
0.0
 20
0.0
 30
0.0
  3
*D9
  1

  0
LINE
  5
781C
330
76EB
100
AcDbEntity
  8
标注
370
    -2
100
AcDbLine
 10
1126.099037908293
 20
180.2520553898191
 30
0.0
 11
1126.704445311587
 21
180.2520553898191
 31
0.0
  0
LINE
  5
781D
330
76EB
100
AcDbEntity
  8
标注
370
    -2
100
AcDbLine
 10
1125.2099719636
 20
172.3114609016493
 30
0.0
 11
1126.704445311587
 21
172.3114609016493
 31
0.0
  0
LINE
  5
781E
330
76EB
100
AcDbEntity
  8
标注
370
    -2
100
AcDbLine
 10
1126.384445311588
 20
179.6020553898191
 30
0.0
 11
1126.384445311588
 21
176.95575200658
 31
0.0
  0
LINE
  5
781F
330
76EB
100
AcDbEntity
  8
标注
370
    -2
100
AcDbLine
 10
1126.384445311588
 20
172.9614609016491
 30
0.0
 11
1126.384445311588
 21
175.6077642848883
 31
0.0
  0
SOLID
  5
7820
330
76EB
100
AcDbEntity
  8
标注
100
AcDbTrace
 10
1126.276111978254
 20
179.6020553898191
 30
0.0
 11
1126.492778644921
 21
179.6020553898191
 31
0.0
 12
1126.384445311588
 22
180.2520553898191
 32
0.0
 13
1126.384445311588
 23
180.2520553898191
 33
0.0
  0
SOLID
  5
7821
330
76EB
100
AcDbEntity
  8
标注
100
AcDbTrace
 10
1126.276111978254
 20
172.9614609016491
 30
0.0
 11
1126.492778644921
 21
172.9614609016491
 31
0.0
 12
1126.384445311588
 22
172.3114609016493
 32
0.0
 13
1126.384445311588
 23
172.3114609016493
 33
0.0
  0
MTEXT
  5
7822
330
76EB
100
AcDbEntity
  8
标注
100
AcDbMText
 10
1126.384445311588
 20
176.2817581457344
 30
0.0
 40
0.65
 41
0.0
 71
     5
 72
     1
  1
\A1;8"
 11
0.0000000000000001
 21
1.0
 31
0.0
 73
     1
 44
1.0
1001
ACAD
1000
MTEXTBEGIN
1070
    73
1070
     1
1070
    44
1040
1.0
1070
    74
1070
     0
1000
MTEXTEND
  0
POINT
  5
7823
330
76EB
100
AcDbEntity
  8
DEFPOINTS
 62
     0
100
AcDbPoint
 10
1125.219037908293
 20
180.2520553898191
 30
0.0
  0
POINT
  5
7824
330
76EB
100
AcDbEntity
  8
DEFPOINTS
 62
     0
100
AcDbPoint
 10
1124.3299719636
 20
172.3114609016493
 30
0.0
  0
POINT
  5
7825
330
76EB
100
AcDbEntity
  8
DEFPOINTS
 62
     0
100
AcDbPoint
 10
1126.384445311588
 20
172.3114609016493
 30
0.0
  0
ENDBLK
  5
76ED
330
76EB
100
AcDbEntity
  8
0
100
AcDbBlockEnd
  0
BLOCK
  5
770E
330
770D
100
AcDbEntity
  8
0
100
AcDbBlockBegin
  2
*D10
 70
     1
 10
0.0
 20
0.0
 30
0.0
  3
*D10
  1

  0
LINE
  5
7826
330
770D
100
AcDbEntity
  8
标注
370
    -2
100
AcDbLine
 10
1092.339037908409
 20
180.2520553898191
 30
0.0
 11
1090.297624076173
 21
180.2520553898191
 31
0.0
  0
LINE
  5
7827
330
770D
100
AcDbEntity
  8
标注
370
    -2
100
AcDbLine
 10
1092.476586291607
 20
170.1897237893847
 30
0.0
 11
1090.297624076173
 21
170.1897237893847
 31
0.0
  0
LINE
  5
7828
330
770D
100
AcDbEntity
  8
标注
370
    -2
100
AcDbLine
 10
1090.617624076173
 20
179.6020553898191
 30
0.0
 11
1090.617624076173
 21
176.1163534368052
 31
0.0
  0
LINE
  5
7829
330
770D
100
AcDbEntity
  8
标注
370
    -2
100
AcDbLine
 10
1090.617624076173
 20
170.8397237893848
 30
0.0
 11
1090.617624076173
 21
174.3254257423986
 31
0.0
  0
SOLID
  5
782A
330
770D
100
AcDbEntity
  8
标注
100
AcDbTrace
 10
1090.509290742839
 20
179.6020553898191
 30
0.0
 11
1090.725957409506
 21
179.6020553898191
 31
0.0
 12
1090.617624076173
 22
180.2520553898191
 32
0.0
 13
1090.617624076173
 23
180.2520553898191
 33
0.0
  0
SOLID
  5
782B
330
770D
100
AcDbEntity
  8
标注
100
AcDbTrace
 10
1090.509290742839
 20
170.8397237893848
 30
0.0
 11
1090.725957409506
 21
170.8397237893848
 31
0.0
 12
1090.617624076173
 22
170.1897237893847
 32
0.0
 13
1090.617624076173
 23
170.1897237893847
 33
0.0
  0
MTEXT
  5
782C
330
770D
100
AcDbEntity
  8
标注
100
AcDbMText
 10
1090.617624076173
 20
175.2208895896021
 30
0.0
 40
0.65
 41
0.0
 71
     5
 72
     1
  1
\A1;10"
 11
0.0000000000000001
 21
1.0
 31
0.0
 73
     1
 44
1.0
1001
ACAD
1000
MTEXTBEGIN
1070
    73
1070
     1
1070
    44
1040
1.0
1070
    74
1070
     0
1000
MTEXTEND
  0
POINT
  5
782D
330
770D
100
AcDbEntity
  8
DEFPOINTS
 62
     0
100
AcDbPoint
 10
1093.219037908409
 20
180.2520553898191
 30
0.0
  0
POINT
  5
782E
330
770D
100
AcDbEntity
  8
DEFPOINTS
 62
     0
100
AcDbPoint
 10
1093.356586291608
 20
170.1897237893847
 30
0.0
  0
POINT
  5
782F
330
770D
100
AcDbEntity
  8
DEFPOINTS
 62
     0
100
AcDbPoint
 10
1090.617624076173
 20
170.1897237893847
 30
0.0
  0
ENDBLK
  5
770F
330
770D
100
AcDbEntity
  8
0
100
AcDbBlockEnd
  0
BLOCK
  5
7746
330
7745
100
AcDbEntity
  8
0
100
AcDbBlockBegin
  2
*D11
 70
     1
 10
0.0
 20
0.0
 30
0.0
  3
*D11
  1

  0
LINE
  5
7830
330
7745
100
AcDbEntity
  8
标注
370
    -2
100
AcDbLine
 10
1093.802240785223
 20
170.0507709463767
 30
0.0
 11
1093.297475771884
 21
169.6412440470058
 31
0.0
  0
MTEXT
  5
7831
330
7745
100
AcDbEntity
  8
标注
100
AcDbMText
 10
1095.198511755165
 20
171.6841163083834
 30
0.0
 40
0.65
 41
0.0
 71
     5
 72
     1
  1
\A1;R3/8"
 11
0.7765615589838496
 21
0.6300413836475928
 31
0.0
 73
     1
 44
1.0
1001
ACAD
1000
MTEXTBEGIN
1070
    73
1070
     1
1070
    44
1040
1.0
1070
    74
1070
     0
1000
MTEXTEND
  0
LINE
  5
7832
330
7745
100
AcDbEntity
  8
标注
370
    -2
100
AcDbLine
 10
1094.6127386958
 20
170.7083456345843
 30
0.0
 11
1094.307005798563
 21
170.4602978457476
 31
0.0
  0
SOLID
  5
7833
330
7745
100
AcDbEntity
  8
标注
100
AcDbTrace
 10
1093.733986301995
 20
170.1348984486
 30
0.0
 11
1093.870495268451
 21
169.9666434441534
 31
0.0
 12
1094.307005798563
 22
170.4602978457476
 32
0.0
 13
1094.307005798563
 23
170.4602978457476
 33
0.0
  0
POINT
  5
7834
330
7745
100
AcDbEntity
  8
DEFPOINTS
 62
     0
100
AcDbPoint
 10
1094.307005798563
 20
170.4602978457476
 30
0.0
  0
POINT
  5
7835
330
7745
100
AcDbEntity
  8
DEFPOINTS
 62
     0
100
AcDbPoint
 10
1094.6127386958
 20
170.7083456345843
 30
0.0
  0
ENDBLK
  5
7747
330
7745
100
AcDbEntity
  8
0
100
AcDbBlockEnd
  0
BLOCK
  5
7750
330
774F
100
AcDbEntity
  8
0
100
AcDbBlockBegin
  2
*D12
 70
     1
 10
0.0
 20
0.0
 30
0.0
  3
*D12
  1

  0
LINE
  5
7836
330
774F
100
AcDbEntity
  8
标注
370
    -2
100
AcDbLine
 10
1112.872264177389
 20
171.9753720636373
 30
0.0
 11
1112.411108602228
 21
171.5172939747729
 31
0.0
  0
MTEXT
  5
7837
330
774F
100
AcDbEntity
  8
标注
100
AcDbMText
 10
1114.150678800255
 20
173.7005345679518
 30
0.0
 40
0.65
 41
0.0
 71
     5
 72
     1
  1
\A1;R3/8"
 11
0.7094701156328542
 21
0.7047355213297429
 31
0.0
 73
     1
 44
1.0
1001
ACAD
1000
MTEXTBEGIN
1070
    73
1070
     1
1070
    44
1040
1.0
1070
    74
1070
     0
1000
MTEXTEND
  0
LINE
  5
7838
330
774F
100
AcDbEntity
  8
标注
370
    -2
100
AcDbLine
 10
1113.612738695712
 20
172.7109050821579
 30
0.0
 11
1113.333419752551
 21
172.4334501525015
 31
0.0
  0
SOLID
  5
7839
330
774F
100
AcDbEntity
  8
标注
100
AcDbTrace
 10
1112.795917829245
 20
172.0522313261641
 30
0.0
 11
1112.948610525533
 21
171.8985128011103
 31
0.0
 12
1113.333419752551
 22
172.4334501525015
 32
0.0
 13
1113.333419752551
 23
172.4334501525015
 33
0.0
  0
POINT
  5
783A
330
774F
100
AcDbEntity
  8
DEFPOINTS
 62
     0
100
AcDbPoint
 10
1113.333419752551
 20
172.4334501525015
 30
0.0
  0
POINT
  5
783B
330
774F
100
AcDbEntity
  8
DEFPOINTS
 62
     0
100
AcDbPoint
 10
1113.612738695712
 20
172.7109050821579
 30
0.0
  0
ENDBLK
  5
7751
330
774F
100
AcDbEntity
  8
0
100
AcDbBlockEnd
  0
BLOCK
  5
7766
330
7765
100
AcDbEntity
  8
0
100
AcDbBlockBegin
  2
*D13
 70
     1
 10
0.0
 20
0.0
 30
0.0
  3
*D13
  1

  0
LINE
  5
783C
330
7765
100
AcDbEntity
  8
标注
370
    -2
100
AcDbLine
 10
1094.140297750931
 20
102.9269107860633
 30
0.0
 11
1094.140297750931
 21
100.45367402825
 31
0.0
  0
LINE
  5
783D
330
7765
100
AcDbEntity
  8
标注
370
    -2
100
AcDbLine
 10
1124.297778065771
 20
102.9269107860633
 30
0.0
 11
1124.297778065771
 21
100.45367402825
 31
0.0
  0
LINE
  5
783E
330
7765
100
AcDbEntity
  8
标注
370
    -2
100
AcDbLine
 10
1094.790297750931
 20
100.77367402825
 30
0.0
 11
1107.535903529088
 21
100.77367402825
 31
0.0
  0
LINE
  5
783F
330
7765
100
AcDbEntity
  8
标注
370
    -2
100
AcDbLine
 10
1123.64777806577
 20
100.77367402825
 30
0.0
 11
1110.902172287614
 21
100.77367402825
 31
0.0
  0
SOLID
  5
7840
330
7765
100
AcDbEntity
  8
标注
100
AcDbTrace
 10
1094.790297750931
 20
100.8820073615833
 30
0.0
 11
1094.790297750931
 21
100.6653406949167
 31
0.0
 12
1094.140297750931
 22
100.77367402825
 32
0.0
 13
1094.140297750931
 23
100.77367402825
 33
0.0
  0
SOLID
  5
7841
330
7765
100
AcDbEntity
  8
标注
100
AcDbTrace
 10
1123.64777806577
 20
100.8820073615833
 30
0.0
 11
1123.64777806577
 21
100.6653406949167
 31
0.0
 12
1124.297778065771
 22
100.77367402825
 32
0.0
 13
1124.297778065771
 23
100.77367402825
 33
0.0
  0
MTEXT
  5
7842
330
7765
100
AcDbEntity
  8
标注
100
AcDbMText
 10
1109.219037908351
 20
100.77367402825
 30
0.0
 40
0.65
 41
0.0
 71
     5
 72
     1
  1
\A1;30 1/8"
 73
     1
 44
1.0
1001
ACAD
1000
MTEXTBEGIN
1070
    73
1070
     1
1070
    44
1040
1.0
1070
    74
1070
     0
1000
MTEXTEND
  0
POINT
  5
7843
330
7765
100
AcDbEntity
  8
DEFPOINTS
 62
     0
100
AcDbPoint
 10
1094.140297750931
 20
103.8069107860633
 30
0.0
  0
POINT
  5
7844
330
7765
100
AcDbEntity
  8
DEFPOINTS
 62
     0
100
AcDbPoint
 10
1124.297778065771
 20
103.8069107860633
 30
0.0
  0
POINT
  5
7845
330
7765
100
AcDbEntity
  8
DEFPOINTS
 62
     0
100
AcDbPoint
 10
1124.297778065771
 20
100.77367402825
 30
0.0
  0
ENDBLK
  5
7767
330
7765
100
AcDbEntity
  8
0
100
AcDbBlockEnd
  0
BLOCK
  5
7774
330
7773
100
AcDbEntity
  8
0
100
AcDbBlockBegin
  2
*D14
 70
     1
 10
0.0
 20
0.0
 30
0.0
  3
*D14
  1

  0
LINE
  5
7846
330
7773
100
AcDbEntity
  8
标注
370
    -2
100
AcDbLine
 10
1124.705337120903
 20
103.3344698411661
 30
0.0
 11
1126.861296074281
 21
103.3344698411661
 31
0.0
  0
LINE
  5
7847
330
7773
100
AcDbEntity
  8
标注
370
    -2
100
AcDbLine
 10
1124.705337120903
 20
118.4919501560758
 30
0.0
 11
1126.861296074281
 21
118.4919501560758
 31
0.0
  0
LINE
  5
7848
330
7773
100
AcDbEntity
  8
标注
370
    -2
100
AcDbLine
 10
1126.541296074281
 20
103.9844698411661
 30
0.0
 11
1126.541296074281
 21
109.2604473792485
 31
0.0
  0
LINE
  5
7849
330
7773
100
AcDbEntity
  8
标注
370
    -2
100
AcDbLine
 10
1126.541296074281
 20
117.8419501560758
 30
0.0
 11
1126.541296074281
 21
112.5659726179934
 31
0.0
  0
SOLID
  5
784A
330
7773
100
AcDbEntity
  8
标注
100
AcDbTrace
 10
1126.432962740947
 20
103.9844698411661
 30
0.0
 11
1126.649629407614
 21
103.9844698411661
 31
0.0
 12
1126.541296074281
 22
103.3344698411661
 32
0.0
 13
1126.541296074281
 23
103.3344698411661
 33
0.0
  0
SOLID
  5
784B
330
7773
100
AcDbEntity
  8
标注
100
AcDbTrace
 10
1126.432962740947
 20
117.8419501560758
 30
0.0
 11
1126.649629407614
 21
117.8419501560758
 31
0.0
 12
1126.541296074281
 22
118.4919501560758
 32
0.0
 13
1126.541296074281
 23
118.4919501560758
 33
0.0
  0
MTEXT
  5
784C
330
7773
100
AcDbEntity
  8
标注
100
AcDbMText
 10
1126.541296074281
 20
110.9132099986211
 30
0.0
 40
0.65
 41
0.0
 71
     5
 72
     1
  1
\A1;15 1/8"
 11
0.0000000000000001
 21
1.0
 31
0.0
 73
     1
 44
1.0
1001
ACAD
1000
MTEXTBEGIN
1070
    73
1070
     1
1070
    44
1040
1.0
1070
    74
1070
     0
1000
MTEXTEND
  0
POINT
  5
784D
330
7773
100
AcDbEntity
  8
DEFPOINTS
 62
     0
100
AcDbPoint
 10
1123.825337120903
 20
103.3344698411661
 30
0.0
  0
POINT
  5
784E
330
7773
100
AcDbEntity
  8
DEFPOINTS
 62
     0
100
AcDbPoint
 10
1123.825337120903
 20
118.4919501560758
 30
0.0
  0
POINT
  5
784F
330
7773
100
AcDbEntity
  8
DEFPOINTS
 62
     0
100
AcDbPoint
 10
1126.541296074281
 20
118.4919501560758
 30
0.0
  0
ENDBLK
  5
7775
330
7773
100
AcDbEntity
  8
0
100
AcDbBlockEnd
  0
BLOCK
  5
7782
330
7781
100
AcDbEntity
  8
0
100
AcDbBlockBegin
  2
*D15
 70
     1
 10
0.0
 20
0.0
 30
0.0
  3
*D15
  1

  0
LINE
  5
7850
330
7781
100
AcDbEntity
  8
标注
370
    -2
100
AcDbLine
 10
1093.732738695799
 20
121.4919501560639
 30
0.0
 11
1091.348689843156
 21
121.4919501560639
 31
0.0
  0
LINE
  5
7851
330
7781
100
AcDbEntity
  8
标注
370
    -2
100
AcDbLine
 10
1093.732738695799
 20
103.3344698411661
 30
0.0
 11
1091.348689843156
 21
103.3344698411661
 31
0.0
  0
LINE
  5
7852
330
7781
100
AcDbEntity
  8
标注
370
    -2
100
AcDbLine
 10
1091.668689843156
 20
120.8419501560639
 30
0.0
 11
1091.668689843156
 21
114.0659726179874
 31
0.0
  0
LINE
  5
7853
330
7781
100
AcDbEntity
  8
标注
370
    -2
100
AcDbLine
 10
1091.668689843156
 20
103.9844698411661
 30
0.0
 11
1091.668689843156
 21
110.7604473792426
 31
0.0
  0
SOLID
  5
7854
330
7781
100
AcDbEntity
  8
标注
100
AcDbTrace
 10
1091.560356509823
 20
120.8419501560639
 30
0.0
 11
1091.77702317649
 21
120.8419501560639
 31
0.0
 12
1091.668689843156
 22
121.4919501560639
 32
0.0
 13
1091.668689843156
 23
121.4919501560639
 33
0.0
  0
SOLID
  5
7855
330
7781
100
AcDbEntity
  8
标注
100
AcDbTrace
 10
1091.560356509823
 20
103.9844698411661
 30
0.0
 11
1091.77702317649
 21
103.9844698411661
 31
0.0
 12
1091.668689843156
 22
103.3344698411661
 32
0.0
 13
1091.668689843156
 23
103.3344698411661
 33
0.0
  0
MTEXT
  5
7856
330
7781
100
AcDbEntity
  8
标注
100
AcDbMText
 10
1091.668689843156
 20
112.4132099986152
 30
0.0
 40
0.65
 41
0.0
 71
     5
 72
     1
  1
\A1;18 1/8"
 11
0.0000000000000001
 21
1.0
 31
0.0
 73
     1
 44
1.0
1001
ACAD
1000
MTEXTBEGIN
1070
    73
1070
     1
1070
    44
1040
1.0
1070
    74
1070
     0
1000
MTEXTEND
  0
POINT
  5
7857
330
7781
100
AcDbEntity
  8
DEFPOINTS
 62
     0
100
AcDbPoint
 10
1094.612738695799
 20
121.4919501560639
 30
0.0
  0
POINT
  5
7858
330
7781
100
AcDbEntity
  8
DEFPOINTS
 62
     0
100
AcDbPoint
 10
1094.612738695799
 20
103.3344698411661
 30
0.0
  0
POINT
  5
7859
330
7781
100
AcDbEntity
  8
DEFPOINTS
 62
     0
100
AcDbPoint
 10
1091.668689843156
 20
103.3344698411661
 30
0.0
  0
ENDBLK
  5
7783
330
7781
100
AcDbEntity
  8
0
100
AcDbBlockEnd
  0
BLOCK
  5
779C
330
779B
100
AcDbEntity
  8
0
100
AcDbBlockBegin
  2
*D16
 70
     1
 10
0.0
 20
0.0
 30
0.0
  3
*D16
  1

  0
LINE
  5
785A
330
779B
100
AcDbEntity
  8
标注
370
    -2
100
AcDbLine
 10
1094.000393770082
 20
102.8662156352885
 30
0.0
 11
1093.645787852032
 21
102.3214637258071
 31
0.0
  0
MTEXT
  5
785B
330
779B
100
AcDbEntity
  8
标注
100
AcDbMText
 10
1095.007723061172
 20
104.9823665217169
 30
0.0
 40
0.65
 41
0.0
 71
     5
 72
     1
  1
\A1;4-R1/2"
 11
0.5455475662312494
 21
0.8380798607407056
 31
0.0
 73
     1
 44
1.0
1001
ACAD
1000
MTEXTBEGIN
1070
    73
1070
     1
1070
    44
1040
1.0
1070
    74
1070
     0
1000
MTEXTEND
  0
LINE
  5
785C
330
779B
100
AcDbEntity
  8
标注
370
    -2
100
AcDbLine
 10
1094.6127386958
 20
103.8069107860634
 30
0.0
 11
1094.354999688132
 21
103.4109675447701
 31
0.0
  0
SOLID
  5
785D
330
779B
100
AcDbEntity
  8
标注
100
AcDbTrace
 10
1093.909601785168
 20
102.9253166216303
 30
0.0
 11
1094.091185754995
 21
102.8071146489468
 31
0.0
 12
1094.354999688132
 22
103.4109675447701
 32
0.0
 13
1094.354999688132
 23
103.4109675447701
 33
0.0
  0
POINT
  5
785E
330
779B
100
AcDbEntity
  8
DEFPOINTS
 62
     0
100
AcDbPoint
 10
1094.354999688132
 20
103.4109675447701
 30
0.0
  0
POINT
  5
785F
330
779B
100
AcDbEntity
  8
DEFPOINTS
 62
     0
100
AcDbPoint
 10
1094.6127386958
 20
103.8069107860634
 30
0.0
  0
ENDBLK
  5
779D
330
779B
100
AcDbEntity
  8
0
100
AcDbBlockEnd
  0
BLOCK
  5
77A6
330
77A5
100
AcDbEntity
  8
0
100
AcDbBlockBegin
  2
*D17
 70
     1
 10
0.0
 20
0.0
 30
0.0
  3
*D17
  1

  0
LINE
  5
7860
330
77A5
100
AcDbEntity
  8
标注
370
    -2
100
AcDbLine
 10
1111.886533972846
 20
117.992092217273
 30
0.0
 11
1111.561771314293
 21
117.429038742362
 31
0.0
  0
MTEXT
  5
7861
330
77A5
100
AcDbEntity
  8
标注
100
AcDbMText
 10
1112.539704507055
 20
120.0034754309798
 30
0.0
 40
0.65
 41
0.0
 71
     5
 72
     1
  1
\A1;R1/2"
 11
0.4996348593125619
 21
0.8662361152478673
 31
0.0
 73
     1
 44
1.0
1001
ACAD
1000
MTEXTBEGIN
1070
    73
1070
     1
1070
    44
1040
1.0
1070
    74
1070
     0
1000
MTEXTEND
  0
LINE
  5
7862
330
77A5
100
AcDbEntity
  8
标注
370
    -2
100
AcDbLine
 10
1112.447344596428
 20
118.9643911009611
 30
0.0
 11
1112.2112966314
 21
118.5551456921842
 31
0.0
  0
SOLID
  5
7863
330
77A5
100
AcDbEntity
  8
标注
100
AcDbTrace
 10
1111.792691727028
 20
118.0462193270319
 30
0.0
 11
1111.980376218665
 21
117.9379651075142
 31
0.0
 12
1112.2112966314
 22
118.5551456921842
 32
0.0
 13
1112.2112966314
 23
118.5551456921842
 33
0.0
  0
POINT
  5
7864
330
77A5
100
AcDbEntity
  8
DEFPOINTS
 62
     0
100
AcDbPoint
 10
1112.2112966314
 20
118.5551456921842
 30
0.0
  0
POINT
  5
7865
330
77A5
100
AcDbEntity
  8
DEFPOINTS
 62
     0
100
AcDbPoint
 10
1112.447344596428
 20
118.9643911009611
 30
0.0
  0
ENDBLK
  5
77A7
330
77A5
100
AcDbEntity
  8
0
100
AcDbBlockEnd
  0
BLOCK
  5
77B0
330
77AF
100
AcDbEntity
  8
0
100
AcDbBlockBegin
  2
*D18
 70
     1
 10
0.0
 20
0.0
 30
0.0
  3
*D18
  1

  0
LINE
  5
7866
330
77AF
100
AcDbEntity
  8
标注
370
    -2
100
AcDbLine
 10
1109.435205492657
 20
122.075940857151
 30
0.0
 11
1109.654823695732
 21
122.6877151986184
 31
0.0
  0
MTEXT
  5
7867
330
77AF
100
AcDbEntity
  8
标注
100
AcDbMText
 10
1109.07288571938
 20
122.8917439178633
 30
0.0
 40
0.65
 41
0.0
 71
     5
 72
     1
  1
\A1;R1/2"
 11
0.3378741585777782
 21
0.941191294565222
 31
0.0
 73
     1
 44
1.0
1001
ACAD
1000
MTEXTBEGIN
1070
    73
1070
     1
1070
    44
1040
1.0
1070
    74
1070
     0
1000
MTEXTEND
  0
LINE
  5
7868
330
77AF
100
AcDbEntity
  8
标注
370
    -2
100
AcDbLine
 10
1109.055961702852
 20
121.0195092111667
 30
0.0
 11
1109.215587289581
 21
121.4641665156836
 31
0.0
  0
SOLID
  5
7869
330
77AF
100
AcDbEntity
  8
标注
100
AcDbTrace
 10
1109.333243102412
 20
122.1125438909969
 30
0.0
 11
1109.537167882901
 21
122.0393378233051
 31
0.0
 12
1109.215587289581
 22
121.4641665156836
 32
0.0
 13
1109.215587289581
 23
121.4641665156836
 33
0.0
  0
POINT
  5
786A
330
77AF
100
AcDbEntity
  8
DEFPOINTS
 62
     0
100
AcDbPoint
 10
1109.215587289581
 20
121.4641665156836
 30
0.0
  0
POINT
  5
786B
330
77AF
100
AcDbEntity
  8
DEFPOINTS
 62
     0
100
AcDbPoint
 10
1109.055961702852
 20
121.0195092111667
 30
0.0
  0
ENDBLK
  5
77B1
330
77AF
100
AcDbEntity
  8
0
100
AcDbBlockEnd
  0
BLOCK
  5
7A03
330
7A02
100
AcDbEntity
  8
0
100
AcDbBlockBegin
  2
*D20
 70
     1
 10
0.0
 20
0.0
 30
0.0
  3
*D20
  1

  0
LINE
  5
7B60
330
7A02
100
AcDbEntity
  8
标注
  6
Continuous
370
    -2
100
AcDbLine
 10
1095.60529636493
 20
100.5912393542974
 30
0.0
 11
1095.60529636493
 21
98.37227685844659
 31
0.0
  0
LINE
  5
7B61
330
7A02
100
AcDbEntity
  8
标注
  6
Continuous
370
    -2
100
AcDbLine
 10
1125.762716364921
 20
100.5912393542974
 30
0.0
 11
1125.762716364921
 21
98.37227685844659
 31
0.0
  0
LINE
  5
7B62
330
7A02
100
AcDbEntity
  8
标注
  6
Continuous
370
    -2
100
AcDbLine
 10
1096.25529636493
 20
98.69227685844657
 30
0.0
 11
1109.000871985662
 21
98.69227685844657
 31
0.0
  0
LINE
  5
7B63
330
7A02
100
AcDbEntity
  8
标注
  6
Continuous
370
    -2
100
AcDbLine
 10
1125.112716364921
 20
98.69227685844657
 30
0.0
 11
1112.367140744188
 21
98.69227685844657
 31
0.0
  0
SOLID
  5
7B64
330
7A02
100
AcDbEntity
  8
标注
100
AcDbTrace
 10
1096.25529636493
 20
98.80061019177992
 30
0.0
 11
1096.25529636493
 21
98.58394352511325
 31
0.0
 12
1095.60529636493
 22
98.69227685844657
 32
0.0
 13
1095.60529636493
 23
98.69227685844657
 33
0.0
  0
SOLID
  5
7B65
330
7A02
100
AcDbEntity
  8
标注
100
AcDbTrace
 10
1125.112716364921
 20
98.80061019177992
 30
0.0
 11
1125.112716364921
 21
98.58394352511325
 31
0.0
 12
1125.762716364921
 22
98.69227685844657
 32
0.0
 13
1125.762716364921
 23
98.69227685844657
 33
0.0
  0
MTEXT
  5
7B66
330
7A02
100
AcDbEntity
  8
标注
100
AcDbMText
 10
1110.684006364925
 20
98.69227685844657
 30
0.0
 40
0.65
 41
0.0
 71
     5
 72
     1
  1
\A1;30 1/8"
 73
     1
 44
1.0
1001
ACAD
1000
MTEXTBEGIN
1070
    73
1070
     1
1070
    44
1040
1.0
1070
    74
1070
     0
1000
MTEXTEND
  0
POINT
  5
7B67
330
7A02
100
AcDbEntity
  8
DEFPOINTS
 62
     0
100
AcDbPoint
 10
1095.60529636493
 20
101.4712393542974
 30
0.0
  0
POINT
  5
7B68
330
7A02
100
AcDbEntity
  8
DEFPOINTS
 62
     0
100
AcDbPoint
 10
1125.762716364921
 20
101.4712393542974
 30
0.0
  0
POINT
  5
7B69
330
7A02
100
AcDbEntity
  8
DEFPOINTS
 62
     0
100
AcDbPoint
 10
1125.762716364921
 20
98.69227685844657
 30
0.0
  0
ENDBLK
  5
7A04
330
7A02
100
AcDbEntity
  8
0
100
AcDbBlockEnd
  0
BLOCK
  5
7A11
330
7A10
100
AcDbEntity
  8
0
100
AcDbBlockBegin
  2
*D21
 70
     1
 10
0.0
 20
0.0
 30
0.0
  3
*D21
  1

  0
LINE
  5
7B6A
330
7A10
100
AcDbEntity
  8
标注
  6
Continuous
370
    -2
100
AcDbLine
 10
1126.170276364938
 20
100.9987993542851
 30
0.0
 11
1128.41886118723
 21
100.9987993542851
 31
0.0
  0
LINE
  5
7B6B
330
7A10
100
AcDbEntity
  8
标注
  6
Continuous
370
    -2
100
AcDbLine
 10
1126.170276364938
 20
116.1562493542839
 30
0.0
 11
1128.41886118723
 21
116.1562493542839
 31
0.0
  0
LINE
  5
7B6C
330
7A10
100
AcDbEntity
  8
标注
  6
Continuous
370
    -2
100
AcDbLine
 10
1128.09886118723
 20
101.6487993542851
 30
0.0
 11
1128.09886118723
 21
106.924761734912
 31
0.0
  0
LINE
  5
7B6D
330
7A10
100
AcDbEntity
  8
标注
  6
Continuous
370
    -2
100
AcDbLine
 10
1128.09886118723
 20
115.5062493542839
 30
0.0
 11
1128.09886118723
 21
110.2302869736569
 31
0.0
  0
SOLID
  5
7B6E
330
7A10
100
AcDbEntity
  8
标注
100
AcDbTrace
 10
1127.990527853897
 20
101.6487993542851
 30
0.0
 11
1128.207194520563
 21
101.6487993542851
 31
0.0
 12
1128.09886118723
 22
100.9987993542851
 32
0.0
 13
1128.09886118723
 23
100.9987993542851
 33
0.0
  0
SOLID
  5
7B6F
330
7A10
100
AcDbEntity
  8
标注
100
AcDbTrace
 10
1127.990527853897
 20
115.5062493542839
 30
0.0
 11
1128.207194520563
 21
115.5062493542839
 31
0.0
 12
1128.09886118723
 22
116.1562493542839
 32
0.0
 13
1128.09886118723
 23
116.1562493542839
 33
0.0
  0
MTEXT
  5
7B70
330
7A10
100
AcDbEntity
  8
标注
100
AcDbMText
 10
1128.09886118723
 20
108.5775243542846
 30
0.0
 40
0.65
 41
0.0
 71
     5
 72
     1
  1
\A1;15 1/8"
 11
0.0000000000000001
 21
1.0
 31
0.0
 73
     1
 44
1.0
1001
ACAD
1000
MTEXTBEGIN
1070
    73
1070
     1
1070
    44
1040
1.0
1070
    74
1070
     0
1000
MTEXTEND
  0
POINT
  5
7B71
330
7A10
100
AcDbEntity
  8
DEFPOINTS
 62
     0
100
AcDbPoint
 10
1125.290276364937
 20
100.9987993542851
 30
0.0
  0
POINT
  5
7B72
330
7A10
100
AcDbEntity
  8
DEFPOINTS
 62
     0
100
AcDbPoint
 10
1125.290276364937
 20
116.1562493542839
 30
0.0
  0
POINT
  5
7B73
330
7A10
100
AcDbEntity
  8
DEFPOINTS
 62
     0
100
AcDbPoint
 10
1128.09886118723
 20
116.1562493542839
 30
0.0
  0
ENDBLK
  5
7A12
330
7A10
100
AcDbEntity
  8
0
100
AcDbBlockEnd
  0
BLOCK
  5
7A1F
330
7A1E
100
AcDbEntity
  8
0
100
AcDbBlockBegin
  2
*D22
 70
     1
 10
0.0
 20
0.0
 30
0.0
  3
*D22
  1

  0
LINE
  5
7B74
330
7A1E
100
AcDbEntity
  8
标注
  6
Continuous
370
    -2
100
AcDbLine
 10
1095.19773636493
 20
100.9987993542851
 30
0.0
 11
1092.635503561517
 21
100.9987993542851
 31
0.0
  0
LINE
  5
7B75
330
7A1E
100
AcDbEntity
  8
标注
  6
Continuous
370
    -2
100
AcDbLine
 10
1095.19773636493
 20
119.1562433542841
 30
0.0
 11
1092.635503561517
 21
119.1562433542841
 31
0.0
  0
LINE
  5
7B76
330
7A1E
100
AcDbEntity
  8
标注
  6
Continuous
370
    -2
100
AcDbLine
 10
1092.955503561517
 20
101.6487993542851
 30
0.0
 11
1092.955503561517
 21
108.4247587349121
 31
0.0
  0
LINE
  5
7B77
330
7A1E
100
AcDbEntity
  8
标注
  6
Continuous
370
    -2
100
AcDbLine
 10
1092.955503561517
 20
118.5062433542841
 30
0.0
 11
1092.955503561517
 21
111.730283973657
 31
0.0
  0
SOLID
  5
7B78
330
7A1E
100
AcDbEntity
  8
标注
100
AcDbTrace
 10
1092.847170228184
 20
101.6487993542851
 30
0.0
 11
1093.06383689485
 21
101.6487993542851
 31
0.0
 12
1092.955503561517
 22
100.9987993542851
 32
0.0
 13
1092.955503561517
 23
100.9987993542851
 33
0.0
  0
SOLID
  5
7B79
330
7A1E
100
AcDbEntity
  8
标注
100
AcDbTrace
 10
1092.847170228184
 20
118.5062433542841
 30
0.0
 11
1093.06383689485
 21
118.5062433542841
 31
0.0
 12
1092.955503561517
 22
119.1562433542841
 32
0.0
 13
1092.955503561517
 23
119.1562433542841
 33
0.0
  0
MTEXT
  5
7B7A
330
7A1E
100
AcDbEntity
  8
标注
100
AcDbMText
 10
1092.955503561517
 20
110.0775213542848
 30
0.0
 40
0.65
 41
0.0
 71
     5
 72
     1
  1
\A1;18 1/8"
 11
0.0000000000000001
 21
1.0
 31
0.0
 73
     1
 44
1.0
1001
ACAD
1000
MTEXTBEGIN
1070
    73
1070
     1
1070
    44
1040
1.0
1070
    74
1070
     0
1000
MTEXTEND
  0
POINT
  5
7B7B
330
7A1E
100
AcDbEntity
  8
DEFPOINTS
 62
     0
100
AcDbPoint
 10
1096.07773636493
 20
100.9987993542851
 30
0.0
  0
POINT
  5
7B7C
330
7A1E
100
AcDbEntity
  8
DEFPOINTS
 62
     0
100
AcDbPoint
 10
1096.07773636493
 20
119.1562433542841
 30
0.0
  0
POINT
  5
7B7D
330
7A1E
100
AcDbEntity
  8
DEFPOINTS
 62
     0
100
AcDbPoint
 10
1092.955503561517
 20
119.1562433542841
 30
0.0
  0
ENDBLK
  5
7A20
330
7A1E
100
AcDbEntity
  8
0
100
AcDbBlockEnd
  0
BLOCK
  5
7A2D
330
7A2C
100
AcDbEntity
  8
0
100
AcDbBlockBegin
  2
*D23
 70
     1
 10
0.0
 20
0.0
 30
0.0
  3
*D23
  1

  0
LINE
  5
7B7E
330
7A2C
100
AcDbEntity
  8
标注
  6
Continuous
370
    -2
100
AcDbLine
 10
1095.605296364917
 20
119.1217923421063
 30
0.0
 11
1095.605296364917
 21
122.0662363368302
 31
0.0
  0
LINE
  5
7B7F
330
7A2C
100
AcDbEntity
  8
标注
  6
Continuous
370
    -2
100
AcDbLine
 10
1110.716621540972
 20
120.0362433542964
 30
0.0
 11
1110.716621540972
 21
122.0662363368302
 31
0.0
  0
LINE
  5
7B80
330
7A2C
100
AcDbEntity
  8
标注
  6
Continuous
370
    -2
100
AcDbLine
 10
1096.255296364917
 20
121.7462363368301
 30
0.0
 11
1101.508196333572
 21
121.7462363368301
 31
0.0
  0
LINE
  5
7B81
330
7A2C
100
AcDbEntity
  8
标注
  6
Continuous
370
    -2
100
AcDbLine
 10
1110.066621540972
 20
121.7462363368301
 30
0.0
 11
1104.813721572317
 21
121.7462363368301
 31
0.0
  0
SOLID
  5
7B82
330
7A2C
100
AcDbEntity
  8
标注
100
AcDbTrace
 10
1096.255296364917
 20
121.8545696701635
 30
0.0
 11
1096.255296364917
 21
121.6379030034968
 31
0.0
 12
1095.605296364917
 22
121.7462363368301
 32
0.0
 13
1095.605296364917
 23
121.7462363368301
 33
0.0
  0
SOLID
  5
7B83
330
7A2C
100
AcDbEntity
  8
标注
100
AcDbTrace
 10
1110.066621540972
 20
121.8545696701635
 30
0.0
 11
1110.066621540972
 21
121.6379030034968
 31
0.0
 12
1110.716621540972
 22
121.7462363368301
 32
0.0
 13
1110.716621540972
 23
121.7462363368301
 33
0.0
  0
MTEXT
  5
7B84
330
7A2C
100
AcDbEntity
  8
标注
100
AcDbMText
 10
1103.160958952945
 20
121.7462363368301
 30
0.0
 40
0.65
 41
0.0
 71
     5
 72
     1
  1
\A1;15 1/8"
 73
     1
 44
1.0
1001
ACAD
1000
MTEXTBEGIN
1070
    73
1070
     1
1070
    44
1040
1.0
1070
    74
1070
     0
1000
MTEXTEND
  0
POINT
  5
7B85
330
7A2C
100
AcDbEntity
  8
DEFPOINTS
 62
     0
100
AcDbPoint
 10
1095.605296364917
 20
118.2417923421063
 30
0.0
  0
POINT
  5
7B86
330
7A2C
100
AcDbEntity
  8
DEFPOINTS
 62
     0
100
AcDbPoint
 10
1110.716621540972
 20
119.1562433542964
 30
0.0
  0
POINT
  5
7B87
330
7A2C
100
AcDbEntity
  8
DEFPOINTS
 62
     0
100
AcDbPoint
 10
1110.716621540972
 20
121.7462363368301
 30
0.0
  0
ENDBLK
  5
7A2E
330
7A2C
100
AcDbEntity
  8
0
100
AcDbBlockEnd
  0
BLOCK
  5
7A43
330
7A42
100
AcDbEntity
  8
0
100
AcDbBlockBegin
  2
*D25
 70
     1
 10
0.0
 20
0.0
 30
0.0
  3
*D25
  1

  0
LINE
  5
7B88
330
7A42
100
AcDbEntity
  8
标注
  6
Continuous
370
    -2
100
AcDbLine
 10
1113.716615540984
 20
117.0362493542839
 30
0.0
 11
1113.716615540984
 21
118.4957540636204
 31
0.0
  0
LINE
  5
7B89
330
7A42
100
AcDbEntity
  8
标注
  6
Continuous
370
    -2
100
AcDbLine
 10
1125.762716364937
 20
116.5638093543007
 30
0.0
 11
1125.762716364937
 21
118.4957540636204
 31
0.0
  0
LINE
  5
7B8A
330
7A42
100
AcDbEntity
  8
标注
  6
Continuous
370
    -2
100
AcDbLine
 10
1114.366615540984
 20
118.1757540636204
 30
0.0
 11
1118.844202105758
 21
118.1757540636204
 31
0.0
  0
LINE
  5
7B8B
330
7A42
100
AcDbEntity
  8
标注
  6
Continuous
370
    -2
100
AcDbLine
 10
1125.112716364937
 20
118.1757540636204
 30
0.0
 11
1120.635129800164
 21
118.1757540636204
 31
0.0
  0
SOLID
  5
7B8C
330
7A42
100
AcDbEntity
  8
标注
100
AcDbTrace
 10
1114.366615540984
 20
118.2840873969537
 30
0.0
 11
1114.366615540984
 21
118.067420730287
 31
0.0
 12
1113.716615540984
 22
118.1757540636204
 32
0.0
 13
1113.716615540984
 23
118.1757540636204
 33
0.0
  0
SOLID
  5
7B8D
330
7A42
100
AcDbEntity
  8
标注
100
AcDbTrace
 10
1125.112716364937
 20
118.2840873969537
 30
0.0
 11
1125.112716364937
 21
118.067420730287
 31
0.0
 12
1125.762716364937
 22
118.1757540636204
 32
0.0
 13
1125.762716364937
 23
118.1757540636204
 33
0.0
  0
MTEXT
  5
7B8E
330
7A42
100
AcDbEntity
  8
标注
100
AcDbMText
 10
1119.739665952961
 20
118.1757540636204
 30
0.0
 40
0.65
 41
0.0
 71
     5
 72
     1
  1
\A1;12"
 73
     1
 44
1.0
1001
ACAD
1000
MTEXTBEGIN
1070
    73
1070
     1
1070
    44
1040
1.0
1070
    74
1070
     0
1000
MTEXTEND
  0
POINT
  5
7B8F
330
7A42
100
AcDbEntity
  8
DEFPOINTS
 62
     0
100
AcDbPoint
 10
1113.716615540984
 20
116.1562493542839
 30
0.0
  0
POINT
  5
7B90
330
7A42
100
AcDbEntity
  8
DEFPOINTS
 62
     0
100
AcDbPoint
 10
1125.762716364937
 20
115.6838093543007
 30
0.0
  0
POINT
  5
7B91
330
7A42
100
AcDbEntity
  8
DEFPOINTS
 62
     0
100
AcDbPoint
 10
1125.762716364937
 20
118.1757540636204
 30
0.0
  0
ENDBLK
  5
7A44
330
7A42
100
AcDbEntity
  8
0
100
AcDbBlockEnd
  0
BLOCK
  5
7A51
330
7A50
100
AcDbEntity
  8
0
100
AcDbBlockBegin
  2
*D26
 70
     1
 10
0.0
 20
0.0
 30
0.0
  3
*D26
  1

  0
ARC
  5
7B92
330
7A50
100
AcDbEntity
  8
标注
  6
Continuous
 62
     3
370
    13
100
AcDbCircle
 10
1110.716621540972
 20
119.1562433542964
 30
0.0
 40
3.084804886965521
100
AcDbArc
 50
192.0952542527258
 51
229.5733859237425
  0
ARC
  5
7B93
330
7A50
100
AcDbEntity
  8
标注
  6
Continuous
 62
     3
370
    13
100
AcDbCircle
 10
1110.716621540972
 20
119.1562433542964
 30
0.0
 40
3.084804886965521
100
AcDbArc
 50
265.4266140762602
 51
302.904745747278
  0
SOLID
  5
7B94
330
7A50
100
AcDbEntity
  8
标注
 62
     3
100
AcDbTrace
 10
1107.592567062546
 20
118.4984473519664
 30
0.0
 11
1107.808027906084
 21
118.5212742954027
 31
0.0
 12
1107.631816654006
 22
119.1562433542964
 32
0.0
 13
1107.631816654006
 23
119.1562433542964
 33
0.0
  0
SOLID
  5
7B95
330
7A50
100
AcDbEntity
  8
标注
 62
     3
100
AcDbTrace
 10
1112.32431689653
 20
116.6505661439638
 30
0.0
 11
1112.460529633578
 21
116.4820712339208
 31
0.0
 12
1112.897907995183
 22
116.9749569000859
 32
0.0
 13
1112.897907995183
 23
116.9749569000859
 33
0.0
  0
MTEXT
  5
7B96
330
7A50
100
AcDbEntity
  8
标注
 62
     3
100
AcDbMText
 10
1109.536117818651
 20
116.306255257438
 30
0.0
 40
0.65
 41
0.0
 71
     5
 72
     1
  1
\A1;135\U+00B0
 11
0.9238795325112956
 21
-0.382683432365068
 31
0.0
 73
     1
 44
1.0
1001
ACAD
1000
MTEXTBEGIN
1070
    73
1070
     1
1070
    44
1040
1.0
1070
    74
1070
     0
1000
MTEXTEND
  0
POINT
  5
7B97
330
7A50
100
AcDbEntity
  8
DEFPOINTS
 62
     0
100
AcDbPoint
 10
1108.535335086761
 20
116.9749569000856
 30
0.0
  0
POINT
  5
7B98
330
7A50
100
AcDbEntity
  8
DEFPOINTS
 62
     0
100
AcDbPoint
 10
1110.854996013271
 20
119.0178688819975
 30
0.0
  0
POINT
  5
7B99
330
7A50
100
AcDbEntity
  8
DEFPOINTS
 62
     0
100
AcDbPoint
 10
1096.07773636493
 20
119.1562433542964
 30
0.0
  0
POINT
  5
7B9A
330
7A50
100
AcDbEntity
  8
DEFPOINTS
 62
     0
100
AcDbPoint
 10
1110.520930485557
 20
119.1562433542964
 30
0.0
  0
POINT
  5
7B9B
330
7A50
100
AcDbEntity
  8
DEFPOINTS
 62
     0
100
AcDbPoint
 10
1113.578241068686
 20
116.2946238265829
 30
0.0
  0
ENDBLK
  5
7A52
330
7A50
100
AcDbEntity
  8
0
100
AcDbBlockEnd
  0
BLOCK
  5
7A73
330
7A72
100
AcDbEntity
  8
0
100
AcDbBlockBegin
  2
*D27
 70
     1
 10
0.0
 20
0.0
 30
0.0
  3
*D27
  1

  0
LINE
  5
7B9C
330
7A72
100
AcDbEntity
  8
标注
  6
Continuous
370
    -2
100
AcDbLine
 10
1095.239270696658
 20
100.7250176200054
 30
0.0
 11
1094.753718966163
 21
100.2928839404414
 31
0.0
  0
MTEXT
  5
7B9D
330
7A72
100
AcDbEntity
  8
标注
100
AcDbMText
 10
1096.734783217616
 20
102.4979080609405
 30
0.0
 40
0.65
 41
0.0
 71
     5
 72
     1
  1
\A1;6-R1/2"
 11
0.7470026622996677
 21
0.664821045483075
 31
0.0
 73
     1
 44
1.0
1001
ACAD
1000
MTEXTBEGIN
1070
    73
1070
     1
1070
    44
1040
1.0
1070
    74
1070
     0
1000
MTEXTEND
  0
LINE
  5
7B9E
330
7A72
100
AcDbEntity
  8
标注
  6
Continuous
370
    -2
100
AcDbLine
 10
1096.07773636493
 20
101.4712393542974
 30
0.0
 11
1095.724822427152
 21
101.1571512995694
 31
0.0
  0
SOLID
  5
7B9F
330
7A72
100
AcDbEntity
  8
标注
100
AcDbTrace
 10
1095.16724841673
 20
100.8059429084212
 30
0.0
 11
1095.311292976585
 21
100.6440923315896
 31
0.0
 12
1095.724822427152
 22
101.1571512995694
 32
0.0
 13
1095.724822427152
 23
101.1571512995694
 33
0.0
  0
POINT
  5
7BA0
330
7A72
100
AcDbEntity
  8
DEFPOINTS
 62
     0
100
AcDbPoint
 10
1095.724822427152
 20
101.1571512995694
 30
0.0
  0
POINT
  5
7BA1
330
7A72
100
AcDbEntity
  8
DEFPOINTS
 62
     0
100
AcDbPoint
 10
1096.07773636493
 20
101.4712393542974
 30
0.0
  0
ENDBLK
  5
7A74
330
7A72
100
AcDbEntity
  8
0
100
AcDbBlockEnd
  0
BLOCK
  5
7A8E
330
7A8D
100
AcDbEntity
  8
0
100
AcDbBlockBegin
  2
*D28
 70
     1
 10
0.0
 20
0.0
 30
0.0
  3
*D28
  1

  0
LINE
  5
7BA2
330
7A8D
100
AcDbEntity
  8
标注
  6
Continuous
370
    -2
100
AcDbLine
 10
1095.821538065609
 20
135.8960034167546
 30
0.0
 11
1095.821538065609
 21
133.0815040295038
 31
0.0
  0
LINE
  5
7BA3
330
7A8D
100
AcDbEntity
  8
标注
  6
Continuous
370
    -2
100
AcDbLine
 10
1113.821502065596
 20
135.8960034167546
 30
0.0
 11
1113.821502065596
 21
133.0815040295038
 31
0.0
  0
LINE
  5
7BA4
330
7A8D
100
AcDbEntity
  8
标注
  6
Continuous
370
    -2
100
AcDbLine
 10
1096.471538065609
 20
133.4015040295038
 30
0.0
 11
1103.926056218399
 21
133.4015040295038
 31
0.0
  0
LINE
  5
7BA5
330
7A8D
100
AcDbEntity
  8
标注
  6
Continuous
370
    -2
100
AcDbLine
 10
1113.171502065596
 20
133.4015040295038
 30
0.0
 11
1105.716983912806
 21
133.4015040295038
 31
0.0
  0
SOLID
  5
7BA6
330
7A8D
100
AcDbEntity
  8
标注
100
AcDbTrace
 10
1096.471538065609
 20
133.5098373628371
 30
0.0
 11
1096.471538065609
 21
133.2931706961705
 31
0.0
 12
1095.821538065609
 22
133.4015040295038
 32
0.0
 13
1095.821538065609
 23
133.4015040295038
 33
0.0
  0
SOLID
  5
7BA7
330
7A8D
100
AcDbEntity
  8
标注
100
AcDbTrace
 10
1113.171502065596
 20
133.5098373628371
 30
0.0
 11
1113.171502065596
 21
133.2931706961705
 31
0.0
 12
1113.821502065596
 22
133.4015040295038
 32
0.0
 13
1113.821502065596
 23
133.4015040295038
 33
0.0
  0
MTEXT
  5
7BA8
330
7A8D
100
AcDbEntity
  8
标注
100
AcDbMText
 10
1104.821520065603
 20
133.4015040295038
 30
0.0
 40
0.65
 41
0.0
 71
     5
 72
     1
  1
\A1;18"
 73
     1
 44
1.0
1001
ACAD
1000
MTEXTBEGIN
1070
    73
1070
     1
1070
    44
1040
1.0
1070
    74
1070
     0
1000
MTEXTEND
  0
POINT
  5
7BA9
330
7A8D
100
AcDbEntity
  8
DEFPOINTS
 62
     0
100
AcDbPoint
 10
1095.821538065609
 20
136.7760034167546
 30
0.0
  0
POINT
  5
7BAA
330
7A8D
100
AcDbEntity
  8
DEFPOINTS
 62
     0
100
AcDbPoint
 10
1113.821502065596
 20
136.7760034167546
 30
0.0
  0
POINT
  5
7BAB
330
7A8D
100
AcDbEntity
  8
DEFPOINTS
 62
     0
100
AcDbPoint
 10
1113.821502065596
 20
133.4015040295038
 30
0.0
  0
ENDBLK
  5
7A8F
330
7A8D
100
AcDbEntity
  8
0
100
AcDbBlockEnd
  0
BLOCK
  5
7A9C
330
7A9B
100
AcDbEntity
  8
0
100
AcDbBlockBegin
  2
*D29
 70
     1
 10
0.0
 20
0.0
 30
0.0
  3
*D29
  1

  0
LINE
  5
7BAC
330
7A9B
100
AcDbEntity
  8
标注
  6
Continuous
370
    -2
100
AcDbLine
 10
1114.821500065596
 20
135.8960034167546
 30
0.0
 11
1114.821500065596
 21
133.0815040295038
 31
0.0
  0
LINE
  5
7BAD
330
7A9B
100
AcDbEntity
  8
标注
  6
Continuous
370
    -2
100
AcDbLine
 10
1125.821478065602
 20
135.8960034167546
 30
0.0
 11
1125.821478065602
 21
133.0815040295038
 31
0.0
  0
LINE
  5
7BAE
330
7A9B
100
AcDbEntity
  8
标注
  6
Continuous
370
    -2
100
AcDbLine
 10
1115.471500065596
 20
133.4015040295038
 30
0.0
 11
1119.426025218396
 21
133.4015040295038
 31
0.0
  0
LINE
  5
7BAF
330
7A9B
100
AcDbEntity
  8
标注
  6
Continuous
370
    -2
100
AcDbLine
 10
1125.171478065602
 20
133.4015040295038
 30
0.0
 11
1121.216952912803
 21
133.4015040295038
 31
0.0
  0
SOLID
  5
7BB0
330
7A9B
100
AcDbEntity
  8
标注
100
AcDbTrace
 10
1115.471500065596
 20
133.5098373628371
 30
0.0
 11
1115.471500065596
 21
133.2931706961705
 31
0.0
 12
1114.821500065596
 22
133.4015040295038
 32
0.0
 13
1114.821500065596
 23
133.4015040295038
 33
0.0
  0
SOLID
  5
7BB1
330
7A9B
100
AcDbEntity
  8
标注
100
AcDbTrace
 10
1125.171478065602
 20
133.5098373628371
 30
0.0
 11
1125.171478065602
 21
133.2931706961705
 31
0.0
 12
1125.821478065602
 22
133.4015040295038
 32
0.0
 13
1125.821478065602
 23
133.4015040295038
 33
0.0
  0
MTEXT
  5
7BB2
330
7A9B
100
AcDbEntity
  8
标注
100
AcDbMText
 10
1120.321489065599
 20
133.4015040295038
 30
0.0
 40
0.65
 41
0.0
 71
     5
 72
     1
  1
\A1;11"
 73
     1
 44
1.0
1001
ACAD
1000
MTEXTBEGIN
1070
    73
1070
     1
1070
    44
1040
1.0
1070
    74
1070
     0
1000
MTEXTEND
  0
POINT
  5
7BB3
330
7A9B
100
AcDbEntity
  8
DEFPOINTS
 62
     0
100
AcDbPoint
 10
1114.821500065596
 20
136.7760034167546
 30
0.0
  0
POINT
  5
7BB4
330
7A9B
100
AcDbEntity
  8
DEFPOINTS
 62
     0
100
AcDbPoint
 10
1125.821478065602
 20
136.7760034167546
 30
0.0
  0
POINT
  5
7BB5
330
7A9B
100
AcDbEntity
  8
DEFPOINTS
 62
     0
100
AcDbPoint
 10
1125.821478065602
 20
133.4015040295038
 30
0.0
  0
ENDBLK
  5
7A9D
330
7A9B
100
AcDbEntity
  8
0
100
AcDbBlockEnd
  0
BLOCK
  5
7AAA
330
7AA9
100
AcDbEntity
  8
0
100
AcDbBlockBegin
  2
*D30
 70
     1
 10
0.0
 20
0.0
 30
0.0
  3
*D30
  1

  0
LINE
  5
7BB6
330
7AA9
100
AcDbEntity
  8
标注
  6
Continuous
370
    -2
100
AcDbLine
 10
1094.821540065621
 20
135.3513299792109
 30
0.0
 11
1094.821540065621
 21
131.1268068136693
 31
0.0
  0
LINE
  5
7BB7
330
7AA9
100
AcDbEntity
  8
标注
  6
Continuous
370
    -2
100
AcDbLine
 10
1126.821476065602
 20
135.3513299792109
 30
0.0
 11
1126.821476065602
 21
131.1268068136693
 31
0.0
  0
LINE
  5
7BB8
330
7AA9
100
AcDbEntity
  8
标注
  6
Continuous
370
    -2
100
AcDbLine
 10
1095.471540065621
 20
131.4468068136693
 30
0.0
 11
1109.895672458518
 21
131.4468068136693
 31
0.0
  0
LINE
  5
7BB9
330
7AA9
100
AcDbEntity
  8
标注
  6
Continuous
370
    -2
100
AcDbLine
 10
1126.171476065602
 20
131.4468068136693
 30
0.0
 11
1111.747343672706
 21
131.4468068136693
 31
0.0
  0
SOLID
  5
7BBA
330
7AA9
100
AcDbEntity
  8
标注
100
AcDbTrace
 10
1095.471540065621
 20
131.5551401470026
 30
0.0
 11
1095.471540065621
 21
131.338473480336
 31
0.0
 12
1094.821540065621
 22
131.4468068136693
 32
0.0
 13
1094.821540065621
 23
131.4468068136693
 33
0.0
  0
SOLID
  5
7BBB
330
7AA9
100
AcDbEntity
  8
标注
100
AcDbTrace
 10
1126.171476065602
 20
131.5551401470026
 30
0.0
 11
1126.171476065602
 21
131.338473480336
 31
0.0
 12
1126.821476065602
 22
131.4468068136693
 32
0.0
 13
1126.821476065602
 23
131.4468068136693
 33
0.0
  0
MTEXT
  5
7BBC
330
7AA9
100
AcDbEntity
  8
标注
100
AcDbMText
 10
1110.821508065612
 20
131.4468068136693
 30
0.0
 40
0.65
 41
0.0
 71
     5
 72
     1
  1
\A1;32"
 73
     1
 44
1.0
1001
ACAD
1000
MTEXTBEGIN
1070
    73
1070
     1
1070
    44
1040
1.0
1070
    74
1070
     0
1000
MTEXTEND
  0
POINT
  5
7BBD
330
7AA9
100
AcDbEntity
  8
DEFPOINTS
 62
     0
100
AcDbPoint
 10
1094.821540065621
 20
136.2313299792109
 30
0.0
  0
POINT
  5
7BBE
330
7AA9
100
AcDbEntity
  8
DEFPOINTS
 62
     0
100
AcDbPoint
 10
1126.821476065602
 20
136.2313299792109
 30
0.0
  0
POINT
  5
7BBF
330
7AA9
100
AcDbEntity
  8
DEFPOINTS
 62
     0
100
AcDbPoint
 10
1126.821476065602
 20
131.4468068136693
 30
0.0
  0
ENDBLK
  5
7AAB
330
7AA9
100
AcDbEntity
  8
0
100
AcDbBlockEnd
  0
BLOCK
  5
7ACE
330
7ACD
100
AcDbEntity
  8
0
100
AcDbBlockBegin
  2
*D31
 70
     1
 10
0.0
 20
0.0
 30
0.0
  3
*D31
  1

  0
LINE
  5
7BC0
330
7ACD
100
AcDbEntity
  8
标注
  6
Continuous
370
    -2
100
AcDbLine
 10
1126.307778065602
 20
136.3823034167395
 30
0.0
 11
1128.680068711357
 21
136.3823034167395
 31
0.0
  0
LINE
  5
7BC1
330
7ACD
100
AcDbEntity
  8
标注
  6
Continuous
370
    -2
100
AcDbLine
 10
1126.307778065602
 20
151.3822734167579
 30
0.0
 11
1128.680068711357
 21
151.3822734167579
 31
0.0
  0
LINE
  5
7BC2
330
7ACD
100
AcDbEntity
  8
标注
  6
Continuous
370
    -2
100
AcDbLine
 10
1128.360068711357
 20
137.0323034167395
 30
0.0
 11
1128.360068711357
 21
142.9868245695455
 31
0.0
  0
LINE
  5
7BC3
330
7ACD
100
AcDbEntity
  8
标注
  6
Continuous
370
    -2
100
AcDbLine
 10
1128.360068711357
 20
150.7322734167579
 30
0.0
 11
1128.360068711357
 21
144.777752263952
 31
0.0
  0
SOLID
  5
7BC4
330
7ACD
100
AcDbEntity
  8
标注
100
AcDbTrace
 10
1128.251735378023
 20
137.0323034167395
 30
0.0
 11
1128.46840204469
 21
137.0323034167395
 31
0.0
 12
1128.360068711357
 22
136.3823034167395
 32
0.0
 13
1128.360068711357
 23
136.3823034167395
 33
0.0
  0
SOLID
  5
7BC5
330
7ACD
100
AcDbEntity
  8
标注
100
AcDbTrace
 10
1128.251735378023
 20
150.7322734167579
 30
0.0
 11
1128.46840204469
 21
150.7322734167579
 31
0.0
 12
1128.360068711357
 22
151.3822734167579
 32
0.0
 13
1128.360068711357
 23
151.3822734167579
 33
0.0
  0
MTEXT
  5
7BC6
330
7ACD
100
AcDbEntity
  8
标注
100
AcDbMText
 10
1128.360068711357
 20
143.8822884167489
 30
0.0
 40
0.65
 41
0.0
 71
     5
 72
     1
  1
\A1;15"
 11
0.0000000000000001
 21
1.0
 31
0.0
 73
     1
 44
1.0
1001
ACAD
1000
MTEXTBEGIN
1070
    73
1070
     1
1070
    44
1040
1.0
1070
    74
1070
     0
1000
MTEXTEND
  0
POINT
  5
7BC7
330
7ACD
100
AcDbEntity
  8
DEFPOINTS
 62
     0
100
AcDbPoint
 10
1125.427778065602
 20
136.3823034167395
 30
0.0
  0
POINT
  5
7BC8
330
7ACD
100
AcDbEntity
  8
DEFPOINTS
 62
     0
100
AcDbPoint
 10
1125.427778065602
 20
151.3822734167579
 30
0.0
  0
POINT
  5
7BC9
330
7ACD
100
AcDbEntity
  8
DEFPOINTS
 62
     0
100
AcDbPoint
 10
1128.360068711357
 20
151.3822734167579
 30
0.0
  0
ENDBLK
  5
7ACF
330
7ACD
100
AcDbEntity
  8
0
100
AcDbBlockEnd
  0
BLOCK
  5
7ADC
330
7ADB
100
AcDbEntity
  8
0
100
AcDbBlockBegin
  2
*D32
 70
     1
 10
0.0
 20
0.0
 30
0.0
  3
*D32
  1

  0
LINE
  5
7BCA
330
7ADB
100
AcDbEntity
  8
标注
  6
Continuous
370
    -2
100
AcDbLine
 10
1126.701478065602
 20
135.3823054167548
 30
0.0
 11
1130.466582777385
 21
135.3823054167548
 31
0.0
  0
LINE
  5
7BCB
330
7ADB
100
AcDbEntity
  8
标注
  6
Continuous
370
    -2
100
AcDbLine
 10
1126.701478065602
 20
152.3822714167578
 30
0.0
 11
1130.466582777385
 21
152.3822714167578
 31
0.0
  0
LINE
  5
7BCC
330
7ADB
100
AcDbEntity
  8
标注
  6
Continuous
370
    -2
100
AcDbLine
 10
1130.146582777385
 20
136.0323054167547
 30
0.0
 11
1130.146582777385
 21
142.986824569553
 31
0.0
  0
LINE
  5
7BCD
330
7ADB
100
AcDbEntity
  8
标注
  6
Continuous
370
    -2
100
AcDbLine
 10
1130.146582777385
 20
151.7322714167578
 30
0.0
 11
1130.146582777385
 21
144.7777522639595
 31
0.0
  0
SOLID
  5
7BCE
330
7ADB
100
AcDbEntity
  8
标注
100
AcDbTrace
 10
1130.038249444052
 20
136.0323054167547
 30
0.0
 11
1130.254916110719
 21
136.0323054167547
 31
0.0
 12
1130.146582777385
 22
135.3823054167548
 32
0.0
 13
1130.146582777385
 23
135.3823054167548
 33
0.0
  0
SOLID
  5
7BCF
330
7ADB
100
AcDbEntity
  8
标注
100
AcDbTrace
 10
1130.038249444052
 20
151.7322714167578
 30
0.0
 11
1130.254916110719
 21
151.7322714167578
 31
0.0
 12
1130.146582777385
 22
152.3822714167578
 32
0.0
 13
1130.146582777385
 23
152.3822714167578
 33
0.0
  0
MTEXT
  5
7BD0
330
7ADB
100
AcDbEntity
  8
标注
100
AcDbMText
 10
1130.146582777385
 20
143.8822884167565
 30
0.0
 40
0.65
 41
0.0
 71
     5
 72
     1
  1
\A1;17"
 11
0.0000000000000001
 21
1.0
 31
0.0
 73
     1
 44
1.0
1001
ACAD
1000
MTEXTBEGIN
1070
    73
1070
     1
1070
    44
1040
1.0
1070
    74
1070
     0
1000
MTEXTEND
  0
POINT
  5
7BD1
330
7ADB
100
AcDbEntity
  8
DEFPOINTS
 62
     0
100
AcDbPoint
 10
1125.821478065602
 20
135.3823054167548
 30
0.0
  0
POINT
  5
7BD2
330
7ADB
100
AcDbEntity
  8
DEFPOINTS
 62
     0
100
AcDbPoint
 10
1125.821478065602
 20
152.3822714167578
 30
0.0
  0
POINT
  5
7BD3
330
7ADB
100
AcDbEntity
  8
DEFPOINTS
 62
     0
100
AcDbPoint
 10
1130.146582777385
 20
152.3822714167578
 30
0.0
  0
ENDBLK
  5
7ADD
330
7ADB
100
AcDbEntity
  8
0
100
AcDbBlockEnd
  0
BLOCK
  5
7AEA
330
7AE9
100
AcDbEntity
  8
0
100
AcDbBlockBegin
  2
*D33
 70
     1
 10
0.0
 20
0.0
 30
0.0
  3
*D33
  1

  0
LINE
  5
7BD4
330
7AE9
100
AcDbEntity
  8
标注
  6
Continuous
370
    -2
100
AcDbLine
 10
1095.335238065624
 20
136.3823034167395
 30
0.0
 11
1092.307844085385
 21
136.3823034167395
 31
0.0
  0
LINE
  5
7BD5
330
7AE9
100
AcDbEntity
  8
标注
  6
Continuous
370
    -2
100
AcDbLine
 10
1095.335238065594
 20
154.3822674167413
 30
0.0
 11
1092.307844085385
 21
154.3822674167413
 31
0.0
  0
LINE
  5
7BD6
330
7AE9
100
AcDbEntity
  8
标注
  6
Continuous
370
    -2
100
AcDbLine
 10
1092.627844085384
 20
137.0323034167395
 30
0.0
 11
1092.627844085384
 21
144.4868215695372
 31
0.0
  0
LINE
  5
7BD7
330
7AE9
100
AcDbEntity
  8
标注
  6
Continuous
370
    -2
100
AcDbLine
 10
1092.627844085384
 20
153.7322674167413
 30
0.0
 11
1092.627844085384
 21
146.2777492639437
 31
0.0
  0
SOLID
  5
7BD8
330
7AE9
100
AcDbEntity
  8
标注
100
AcDbTrace
 10
1092.519510752051
 20
137.0323034167395
 30
0.0
 11
1092.736177418718
 21
137.0323034167395
 31
0.0
 12
1092.627844085384
 22
136.3823034167395
 32
0.0
 13
1092.627844085384
 23
136.3823034167395
 33
0.0
  0
SOLID
  5
7BD9
330
7AE9
100
AcDbEntity
  8
标注
100
AcDbTrace
 10
1092.519510752051
 20
153.7322674167413
 30
0.0
 11
1092.736177418718
 21
153.7322674167413
 31
0.0
 12
1092.627844085384
 22
154.3822674167413
 32
0.0
 13
1092.627844085384
 23
154.3822674167413
 33
0.0
  0
MTEXT
  5
7BDA
330
7AE9
100
AcDbEntity
  8
标注
100
AcDbMText
 10
1092.627844085384
 20
145.3822854167406
 30
0.0
 40
0.65
 41
0.0
 71
     5
 72
     1
  1
\A1;18"
 11
0.0000000000000001
 21
1.0
 31
0.0
 73
     1
 44
1.0
1001
ACAD
1000
MTEXTBEGIN
1070
    73
1070
     1
1070
    44
1040
1.0
1070
    74
1070
     0
1000
MTEXTEND
  0
POINT
  5
7BDB
330
7AE9
100
AcDbEntity
  8
DEFPOINTS
 62
     0
100
AcDbPoint
 10
1096.215238065624
 20
136.3823034167395
 30
0.0
  0
POINT
  5
7BDC
330
7AE9
100
AcDbEntity
  8
DEFPOINTS
 62
     0
100
AcDbPoint
 10
1096.215238065595
 20
154.3822674167413
 30
0.0
  0
POINT
  5
7BDD
330
7AE9
100
AcDbEntity
  8
DEFPOINTS
 62
     0
100
AcDbPoint
 10
1092.627844085384
 20
154.3822674167413
 30
0.0
  0
ENDBLK
  5
7AEB
330
7AE9
100
AcDbEntity
  8
0
100
AcDbBlockEnd
  0
BLOCK
  5
7AF8
330
7AF7
100
AcDbEntity
  8
0
100
AcDbBlockBegin
  2
*D34
 70
     1
 10
0.0
 20
0.0
 30
0.0
  3
*D34
  1

  0
LINE
  5
7BDE
330
7AF7
100
AcDbEntity
  8
标注
  6
Continuous
370
    -2
100
AcDbLine
 10
1094.941538065609
 20
135.3823054167548
 30
0.0
 11
1090.331928581377
 21
135.3823054167548
 31
0.0
  0
LINE
  5
7BDF
330
7AF7
100
AcDbEntity
  8
标注
  6
Continuous
370
    -2
100
AcDbLine
 10
1094.941538065495
 20
155.3822654167421
 30
0.0
 11
1090.331928581377
 21
155.3822654167421
 31
0.0
  0
LINE
  5
7BE0
330
7AF7
100
AcDbEntity
  8
标注
  6
Continuous
370
    -2
100
AcDbLine
 10
1090.651928581377
 20
136.0323054167547
 30
0.0
 11
1090.651928581377
 21
144.4506858260253
 31
0.0
  0
LINE
  5
7BE1
330
7AF7
100
AcDbEntity
  8
标注
  6
Continuous
370
    -2
100
AcDbLine
 10
1090.651928581377
 20
154.732265416742
 30
0.0
 11
1090.651928581377
 21
146.3138850074715
 31
0.0
  0
SOLID
  5
7BE2
330
7AF7
100
AcDbEntity
  8
标注
100
AcDbTrace
 10
1090.543595248044
 20
136.0323054167547
 30
0.0
 11
1090.76026191471
 21
136.0323054167547
 31
0.0
 12
1090.651928581377
 22
135.3823054167548
 32
0.0
 13
1090.651928581377
 23
135.3823054167548
 33
0.0
  0
SOLID
  5
7BE3
330
7AF7
100
AcDbEntity
  8
标注
100
AcDbTrace
 10
1090.543595248044
 20
154.732265416742
 30
0.0
 11
1090.76026191471
 21
154.732265416742
 31
0.0
 12
1090.651928581377
 22
155.3822654167421
 32
0.0
 13
1090.651928581377
 23
155.3822654167421
 33
0.0
  0
MTEXT
  5
7BE4
330
7AF7
100
AcDbEntity
  8
标注
100
AcDbMText
 10
1090.651928581377
 20
145.3822854167486
 30
0.0
 40
0.65
 41
0.0
 71
     5
 72
     1
  1
\A1;20"
 11
0.0000000000000001
 21
1.0
 31
0.0
 73
     1
 44
1.0
1001
ACAD
1000
MTEXTBEGIN
1070
    73
1070
     1
1070
    44
1040
1.0
1070
    74
1070
     0
1000
MTEXTEND
  0
POINT
  5
7BE5
330
7AF7
100
AcDbEntity
  8
DEFPOINTS
 62
     0
100
AcDbPoint
 10
1095.821538065609
 20
135.3823054167548
 30
0.0
  0
POINT
  5
7BE6
330
7AF7
100
AcDbEntity
  8
DEFPOINTS
 62
     0
100
AcDbPoint
 10
1095.821538065495
 20
155.3822654167421
 30
0.0
  0
POINT
  5
7BE7
330
7AF7
100
AcDbEntity
  8
DEFPOINTS
 62
     0
100
AcDbPoint
 10
1090.651928581377
 20
155.3822654167421
 30
0.0
  0
ENDBLK
  5
7AF9
330
7AF7
100
AcDbEntity
  8
0
100
AcDbBlockEnd
  0
BLOCK
  5
7B1B
330
7B1A
100
AcDbEntity
  8
0
100
AcDbBlockBegin
  2
*D35
 70
     1
 10
0.0
 20
0.0
 30
0.0
  3
*D35
  1

  0
LINE
  5
7BE8
330
7B1A
100
AcDbEntity
  8
标注
  6
Continuous
370
    -2
100
AcDbLine
 10
1127.701476065602
 20
177.6263846381747
 30
0.0
 11
1129.668942608154
 21
177.6263846381747
 31
0.0
  0
LINE
  5
7BE9
330
7B1A
100
AcDbEntity
  8
标注
  6
Continuous
370
    -2
100
AcDbLine
 10
1127.701476065602
 20
169.6263846381747
 30
0.0
 11
1129.668942608154
 21
169.6263846381747
 31
0.0
  0
LINE
  5
7BEA
330
7B1A
100
AcDbEntity
  8
标注
  6
Continuous
370
    -2
100
AcDbLine
 10
1129.348942608154
 20
176.9763846381747
 30
0.0
 11
1129.348942608154
 21
174.3003784990205
 31
0.0
  0
LINE
  5
7BEB
330
7B1A
100
AcDbEntity
  8
标注
  6
Continuous
370
    -2
100
AcDbLine
 10
1129.348942608154
 20
170.2763846381747
 30
0.0
 11
1129.348942608154
 21
172.9523907773289
 31
0.0
  0
SOLID
  5
7BEC
330
7B1A
100
AcDbEntity
  8
标注
100
AcDbTrace
 10
1129.240609274821
 20
176.9763846381747
 30
0.0
 11
1129.457275941488
 21
176.9763846381747
 31
0.0
 12
1129.348942608154
 22
177.6263846381747
 32
0.0
 13
1129.348942608154
 23
177.6263846381747
 33
0.0
  0
SOLID
  5
7BED
330
7B1A
100
AcDbEntity
  8
标注
100
AcDbTrace
 10
1129.240609274821
 20
170.2763846381747
 30
0.0
 11
1129.457275941488
 21
170.2763846381747
 31
0.0
 12
1129.348942608154
 22
169.6263846381747
 32
0.0
 13
1129.348942608154
 23
169.6263846381747
 33
0.0
  0
MTEXT
  5
7BEE
330
7B1A
100
AcDbEntity
  8
标注
100
AcDbMText
 10
1129.348942608154
 20
173.6263846381749
 30
0.0
 40
0.65
 41
0.0
 71
     5
 72
     1
  1
\A1;8"
 11
0.0000000000000001
 21
1.0
 31
0.0
 73
     1
 44
1.0
1001
ACAD
1000
MTEXTBEGIN
1070
    73
1070
     1
1070
    44
1040
1.0
1070
    74
1070
     0
1000
MTEXTEND
  0
POINT
  5
7BEF
330
7B1A
100
AcDbEntity
  8
DEFPOINTS
 62
     0
100
AcDbPoint
 10
1126.821476065602
 20
177.6263846381747
 30
0.0
  0
POINT
  5
7BF0
330
7B1A
100
AcDbEntity
  8
DEFPOINTS
 62
     0
100
AcDbPoint
 10
1126.821476065602
 20
169.6263846381747
 30
0.0
  0
POINT
  5
7BF1
330
7B1A
100
AcDbEntity
  8
DEFPOINTS
 62
     0
100
AcDbPoint
 10
1129.348942608154
 20
169.6263846381747
 30
0.0
  0
ENDBLK
  5
7B1C
330
7B1A
100
AcDbEntity
  8
0
100
AcDbBlockEnd
  0
BLOCK
  5
7B29
330
7B28
100
AcDbEntity
  8
0
100
AcDbBlockBegin
  2
*D36
 70
     1
 10
0.0
 20
0.0
 30
0.0
  3
*D36
  1

  0
LINE
  5
7BF2
330
7B28
100
AcDbEntity
  8
标注
  6
Continuous
370
    -2
100
AcDbLine
 10
1093.941540065594
 20
177.6263846381747
 30
0.0
 11
1092.461865311912
 21
177.6263846381747
 31
0.0
  0
LINE
  5
7BF3
330
7B28
100
AcDbEntity
  8
标注
  6
Continuous
370
    -2
100
AcDbLine
 10
1093.941540065594
 20
168.6263846381747
 30
0.0
 11
1092.461865311912
 21
168.6263846381747
 31
0.0
  0
LINE
  5
7BF4
330
7B28
100
AcDbEntity
  8
标注
  6
Continuous
370
    -2
100
AcDbLine
 10
1092.781865311911
 20
176.9763846381747
 30
0.0
 11
1092.781865311911
 21
173.7999351156645
 31
0.0
  0
LINE
  5
7BF5
330
7B28
100
AcDbEntity
  8
标注
  6
Continuous
370
    -2
100
AcDbLine
 10
1092.781865311911
 20
169.2763846381747
 30
0.0
 11
1092.781865311911
 21
172.4528341606849
 31
0.0
  0
SOLID
  5
7BF6
330
7B28
100
AcDbEntity
  8
标注
100
AcDbTrace
 10
1092.673531978578
 20
176.9763846381747
 30
0.0
 11
1092.890198645245
 21
176.9763846381747
 31
0.0
 12
1092.781865311911
 22
177.6263846381747
 32
0.0
 13
1092.781865311911
 23
177.6263846381747
 33
0.0
  0
SOLID
  5
7BF7
330
7B28
100
AcDbEntity
  8
标注
100
AcDbTrace
 10
1092.673531978578
 20
169.2763846381747
 30
0.0
 11
1092.890198645245
 21
169.2763846381747
 31
0.0
 12
1092.781865311911
 22
168.6263846381747
 32
0.0
 13
1092.781865311911
 23
168.6263846381747
 33
0.0
  0
MTEXT
  5
7BF8
330
7B28
100
AcDbEntity
  8
标注
100
AcDbMText
 10
1092.781865311911
 20
173.1263846381749
 30
0.0
 40
0.65
 41
0.0
 71
     5
 72
     1
  1
\A1;9"
 11
0.0000000000000001
 21
1.0
 31
0.0
 73
     1
 44
1.0
1001
ACAD
1000
MTEXTBEGIN
1070
    73
1070
     1
1070
    44
1040
1.0
1070
    74
1070
     0
1000
MTEXTEND
  0
POINT
  5
7BF9
330
7B28
100
AcDbEntity
  8
DEFPOINTS
 62
     0
100
AcDbPoint
 10
1094.821540065595
 20
177.6263846381747
 30
0.0
  0
POINT
  5
7BFA
330
7B28
100
AcDbEntity
  8
DEFPOINTS
 62
     0
100
AcDbPoint
 10
1094.821540065595
 20
168.6263846381747
 30
0.0
  0
POINT
  5
7BFB
330
7B28
100
AcDbEntity
  8
DEFPOINTS
 62
     0
100
AcDbPoint
 10
1092.781865311911
 20
168.6263846381747
 30
0.0
  0
ENDBLK
  5
7B2A
330
7B28
100
AcDbEntity
  8
0
100
AcDbBlockEnd
  0
BLOCK
  5
7B42
330
7B41
100
AcDbEntity
  8
0
100
AcDbBlockBegin
  2
*D37
 70
     1
 10
0.0
 20
0.0
 30
0.0
  3
*D37
  1

  0
LINE
  5
7BFC
330
7B41
100
AcDbEntity
  8
标注
  6
Continuous
370
    -2
100
AcDbLine
 10
1095.454181533537
 20
136.0617887116633
 30
0.0
 11
1094.980207454916
 21
135.6169869886497
 31
0.0
  0
MTEXT
  5
7BFD
330
7B41
100
AcDbEntity
  8
标注
100
AcDbMText
 10
1096.833723683428
 20
137.9766254925394
 30
0.0
 40
0.65
 41
0.0
 71
     5
 72
     1
  1
\A1;5-R3/8"
 11
0.7291908901853669
 21
0.6843103430978318
 31
0.0
 73
     1
 44
1.0
1001
ACAD
1000
MTEXTBEGIN
1070
    73
1070
     1
1070
    44
1040
1.0
1070
    74
1070
     0
1000
MTEXTEND
  0
LINE
  5
7BFE
330
7B41
100
AcDbEntity
  8
标注
  6
Continuous
370
    -2
100
AcDbLine
 10
1096.215238065624
 20
136.7760034167548
 30
0.0
 11
1095.928155612157
 21
136.5065904346768
 31
0.0
  0
SOLID
  5
7BFF
330
7B41
100
AcDbEntity
  8
标注
100
AcDbTrace
 10
1095.380047913035
 20
136.1407843914333
 30
0.0
 11
1095.528315154039
 21
135.9827930318931
 31
0.0
 12
1095.928155612157
 22
136.5065904346768
 32
0.0
 13
1095.928155612157
 23
136.5065904346768
 33
0.0
  0
POINT
  5
7C00
330
7B41
100
AcDbEntity
  8
DEFPOINTS
 62
     0
100
AcDbPoint
 10
1095.928155612157
 20
136.5065904346768
 30
0.0
  0
POINT
  5
7C01
330
7B41
100
AcDbEntity
  8
DEFPOINTS
 62
     0
100
AcDbPoint
 10
1096.215238065624
 20
136.7760034167548
 30
0.0
  0
ENDBLK
  5
7B43
330
7B41
100
AcDbEntity
  8
0
100
AcDbBlockEnd
  0
BLOCK
  5
7B4C
330
7B4B
100
AcDbEntity
  8
0
100
AcDbBlockBegin
  2
*D38
 70
     1
 10
0.0
 20
0.0
 30
0.0
  3
*D38
  1

  0
LINE
  5
7C02
330
7B4B
100
AcDbEntity
  8
标注
  6
Continuous
370
    -2
100
AcDbLine
 10
1114.467192016675
 20
136.0481341642446
 30
0.0
 11
1114.001344328835
 21
135.5948286031336
 31
0.0
  0
MTEXT
  5
7C03
330
7B4B
100
AcDbEntity
  8
标注
100
AcDbMText
 10
1115.840729663195
 20
137.9969019678853
 30
0.0
 40
0.65
 41
0.0
 71
     5
 72
     1
  1
\A1;4-R3/8"
 11
0.7166887505229612
 21
0.6973931709400638
 31
0.0
 73
     1
 44
1.0
1001
ACAD
1000
MTEXTBEGIN
1070
    73
1070
     1
1070
    44
1040
1.0
1070
    74
1070
     0
1000
MTEXTEND
  0
LINE
  5
7C04
330
7B4B
100
AcDbEntity
  8
标注
  6
Continuous
370
    -2
100
AcDbLine
 10
1115.215200065596
 20
136.7760034167547
 30
0.0
 11
1114.933039704515
 21
136.5014397253555
 31
0.0
  0
SOLID
  5
7C05
330
7B4B
100
AcDbEntity
  8
标注
100
AcDbTrace
 10
1114.391641089824
 20
136.1257754455513
 30
0.0
 11
1114.542742943527
 21
135.970492882938
 31
0.0
 12
1114.933039704515
 22
136.5014397253555
 32
0.0
 13
1114.933039704515
 23
136.5014397253555
 33
0.0
  0
POINT
  5
7C06
330
7B4B
100
AcDbEntity
  8
DEFPOINTS
 62
     0
100
AcDbPoint
 10
1114.933039704515
 20
136.5014397253555
 30
0.0
  0
POINT
  5
7C07
330
7B4B
100
AcDbEntity
  8
DEFPOINTS
 62
     0
100
AcDbPoint
 10
1115.215200065596
 20
136.7760034167547
 30
0.0
  0
ENDBLK
  5
7B4D
330
7B4B
100
AcDbEntity
  8
0
100
AcDbBlockEnd
  0
ENDSEC
  0
SECTION
  2
ENTITIES
  0
LINE
  5
794D
330
5F6E
100
AcDbEntity
  8
0
100
AcDbLine
 10
1096.215238065624
 20
136.7760034167546
 30
0.0
 11
1103.380898680557
 21
145.5240016479034
 31
0.0
  0
LINE
  5
794E
330
5F6E
100
AcDbEntity
  8
0
100
AcDbLine
 10
1106.262141450677
 20
145.5240016479034
 30
0.0
 11
1113.42780206561
 21
136.7760034167546
 31
0.0
  0
LINE
  5
794F
330
5F6E
100
AcDbEntity
  8
0
100
AcDbLine
 10
1094.821540065595
 20
136.2313299792109
 30
0.0
 11
1094.821540065624
 21
154.5332408543141
 31
0.0
  0
LINE
  5
7950
330
5F6E
100
AcDbEntity
  8
0
100
AcDbLine
 10
1126.821476065602
 20
136.2313299791818
 30
0.0
 11
1126.821476065602
 21
151.5332468543016
 31
0.0
  0
LINE
  5
7951
330
5F6E
100
AcDbEntity
  8
0
100
AcDbLine
 10
1125.821478065617
 20
136.7760034167546
 30
0.0
 11
1125.821478065617
 21
150.9885734167579
 31
0.0
  0
ARC
  5
7952
330
5F6E
100
AcDbEntity
  8
0
100
AcDbCircle
 10
1125.427778065602
 20
136.7760034167546
 30
0.0
 40
0.3937
100
AcDbArc
 50
270.0
 51
0.0
  0
ARC
  5
7953
330
5F6E
100
AcDbEntity
  8
0
100
AcDbCircle
 10
1125.427778065602
 20
150.9885734167579
 30
0.0
 40
0.3937
100
AcDbArc
 50
0.0
 51
90.0
  0
LINE
  5
7954
330
5F6E
100
AcDbEntity
  8
0
100
AcDbLine
 10
1095.670564628051
 20
135.3823054167548
 30
0.0
 11
1125.972451503175
 21
135.3823054167548
 31
0.0
  0
LINE
  5
7955
330
5F6E
100
AcDbEntity
  8
0
100
AcDbLine
 10
1115.215200065596
 20
136.3823034167395
 30
0.0
 11
1125.427778065602
 21
136.3823034167395
 31
0.0
  0
LINE
  5
7956
330
5F6E
100
AcDbEntity
  8
0
100
AcDbLine
 10
1114.317252739468
 20
152.3822714167578
 30
0.0
 11
1125.972451503175
 21
152.3822714167578
 31
0.0
  0
ARC
  5
7957
330
5F6E
100
AcDbEntity
  8
0
100
AcDbCircle
 10
1114.317252739468
 20
152.5791214167362
 30
0.0
 40
0.19685
100
AcDbArc
 50
225.0000000000047
 51
270.0
  0
LINE
  5
7958
330
5F6E
100
AcDbEntity
  8
0
100
AcDbLine
 10
1115.215200065625
 20
151.3822734167439
 30
0.0
 11
1125.427778065602
 21
151.3822734167439
 31
0.0
  0
ARC
  5
7959
330
5F6E
100
AcDbEntity
  8
0
100
AcDbCircle
 10
1115.215200065625
 20
150.9885734167579
 30
0.0
 40
0.3937
100
AcDbArc
 50
90.0
 51
180.0
  0
LINE
  5
795A
330
5F6E
100
AcDbEntity
  8
0
100
AcDbLine
 10
1095.67056374248
 20
155.3822654167412
 30
0.0
 11
1111.072644920108
 21
155.3822654168285
 31
0.0
  0
LINE
  5
795B
330
5F6E
100
AcDbEntity
  8
0
100
AcDbLine
 10
1114.82150006561
 20
150.9885734167579
 30
0.0
 11
1114.82150006561
 21
136.7760034167546
 31
0.0
  0
ARC
  5
795C
330
5F6E
100
AcDbEntity
  8
0
100
AcDbCircle
 10
1115.215200065596
 20
136.7760034167546
 30
0.0
 40
0.3937
100
AcDbArc
 50
180.0
 51
270.0
  0
LINE
  5
795D
330
5F6E
100
AcDbEntity
  8
0
100
AcDbLine
 10
1096.215238065624
 20
136.3823034167395
 30
0.0
 11
1113.42780206561
 21
136.3823034167395
 31
0.0
  0
LINE
  5
795E
330
5F6E
100
AcDbEntity
  8
0
100
AcDbLine
 10
1113.821502065596
 20
151.2191975373822
 30
0.0
 11
1113.821502065596
 21
136.7760034167546
 31
0.0
  0
ARC
  5
795F
330
5F6E
100
AcDbEntity
  8
0
100
AcDbCircle
 10
1113.42780206561
 20
136.7760034167546
 30
0.0
 40
0.3937
100
AcDbArc
 50
270.0
 51
0.0
  0
LINE
  5
7960
330
5F6E
100
AcDbEntity
  8
0
100
AcDbLine
 10
1095.821538065609
 20
136.7760034167546
 30
0.0
 11
1095.821538065609
 21
153.9885674167414
 31
0.0
  0
ARC
  5
7961
330
5F6E
100
AcDbEntity
  8
0
100
AcDbCircle
 10
1096.215238065624
 20
136.7760034167546
 30
0.0
 40
0.3937
100
AcDbArc
 50
180.0
 51
270.0
  0
LINE
  5
7962
330
5F6E
100
AcDbEntity
  8
0
100
AcDbLine
 10
1096.215238065595
 20
154.3822674167564
 30
0.0
 11
1110.658432186251
 21
154.3822674167564
 31
0.0
  0
ARC
  5
7963
330
5F6E
100
AcDbEntity
  8
0
100
AcDbCircle
 10
1096.215238065595
 20
153.9885674167414
 30
0.0
 40
0.3937
100
AcDbArc
 50
90.0
 51
180.0
  0
CIRCLE
  5
7964
330
5F6E
100
AcDbEntity
  8
0
100
AcDbCircle
 10
1104.821520065617
 20
147.2956674167468
 30
0.0
 40
2.165350000000524
  0
CIRCLE
  5
7965
330
5F6E
100
AcDbEntity
  8
0
100
AcDbCircle
 10
1104.821520065617
 20
147.2956674167468
 30
0.0
 40
1.771650000000303
  0
CIRCLE
  5
7966
330
5F6E
100
AcDbEntity
  8
0
100
AcDbCircle
 10
1104.821520065617
 20
147.2956674167468
 30
0.0
 40
2.28346
  0
LINE
  5
7967
330
5F6E
100
AcDbEntity
  8
0
100
AcDbLine
 10
1103.01442916993
 20
148.6915943726886
 30
0.0
 11
1096.215238065595
 21
153.9885674167414
 31
0.0
  0
LINE
  5
7968
330
5F6E
100
AcDbEntity
  8
0
100
AcDbLine
 10
1106.33578956586
 20
149.0048126569705
 30
0.0
 11
1110.658432186251
 21
153.9885674167414
 31
0.0
  0
LINE
  5
7969
330
5F6E
100
AcDbEntity
  8
0
100
AcDbLine
 10
1111.351032859869
 20
155.2669533565746
 30
0.0
 11
1114.178058769573
 21
152.4399274468702
 31
0.0
  0
ARC
  5
796A
330
5F6E
100
AcDbEntity
  8
0
100
AcDbCircle
 10
1111.072644920108
 20
154.9885654168425
 30
0.0
 40
0.3937
100
AcDbArc
 50
45.00000000000467
 51
90.0
  0
LINE
  5
796B
330
5F6E
100
AcDbEntity
  8
0
100
AcDbLine
 10
1110.936820126013
 20
154.2669553565025
 30
0.0
 11
1113.706190005371
 21
151.4975854771433
 31
0.0
  0
ARC
  5
796C
330
5F6E
100
AcDbEntity
  8
0
100
AcDbCircle
 10
1110.658432186251
 20
153.9885674167414
 30
0.0
 40
0.3937
100
AcDbArc
 50
45.00000000000467
 51
90.0
  0
ARC
  5
796D
330
5F6E
100
AcDbEntity
  8
0
100
AcDbCircle
 10
1113.42780206561
 20
151.2191975373822
 30
0.0
 40
0.3937
100
AcDbArc
 50
0.0
 51
45.00000000000467
  0
LINE
  5
796E
330
5F6E
100
AcDbEntity
  8
0
100
AcDbLine
 10
1115.215200065596
 20
136.7760034167546
 30
0.0
 11
1119.002956336093
 21
142.0179759395065
 31
0.0
  0
LINE
  5
796F
330
5F6E
100
AcDbEntity
  8
0
100
AcDbLine
 10
1121.640021795135
 20
142.0179759395065
 30
0.0
 11
1125.427778065602
 21
136.7760034167546
 31
0.0
  0
CIRCLE
  5
7970
330
5F6E
100
AcDbEntity
  8
0
100
AcDbCircle
 10
1120.321489065614
 20
143.8822884167417
 30
0.0
 40
2.165350000000524
  0
CIRCLE
  5
7971
330
5F6E
100
AcDbEntity
  8
0
100
AcDbCircle
 10
1120.321489065614
 20
143.8822884167417
 30
0.0
 40
1.771650000000303
  0
CIRCLE
  5
7972
330
5F6E
100
AcDbEntity
  8
0
100
AcDbCircle
 10
1120.321489065614
 20
143.8822884167417
 30
0.0
 40
2.28346
  0
LINE
  5
7973
330
5F6E
100
AcDbEntity
  8
0
100
AcDbLine
 10
1118.991813928257
 20
145.7386702742184
 30
0.0
 11
1115.215200065625
 21
150.9885734167579
 31
0.0
  0
LINE
  5
7974
330
5F6E
100
AcDbEntity
  8
0
100
AcDbLine
 10
1121.65116420297
 20
145.7386702741893
 30
0.0
 11
1125.427778065602
 21
150.9885734167579
 31
0.0
  0
ARC
  5
7975
330
5F6E
100
AcDbEntity
  8
0
 48
5.0
100
AcDbCircle
 10
1095.670564628051
 20
155.303525416744
 30
0.0
 40
0.07874
100
AcDbArc
 50
90.0
 51
134.9999999999953
  0
ARC
  5
7976
330
5F6E
100
AcDbEntity
  8
0
100
AcDbCircle
 10
1094.900280065621
 20
154.5332408543141
 30
0.0
 40
0.07874
100
AcDbArc
 50
134.9999999999953
 51
180.0
  0
LINE
  5
7977
330
5F6E
100
AcDbEntity
  8
0
 48
5.0
100
AcDbLine
 10
1095.614887040099
 20
155.3592030046963
 30
0.0
 11
1094.844602477669
 21
154.5889184422373
 31
0.0
  0
POINT
  5
7978
330
5F6E
100
AcDbEntity
  8
标注
 48
5.0
100
AcDbPoint
 10
1094.821540065595
 20
154.5658560301923
 30
0.0
  0
POINT
  5
7979
330
5F6E
100
AcDbEntity
  8
标注
 48
5.0
100
AcDbPoint
 10
1095.637949452144
 20
155.3822654167412
 30
0.0
  0
ARC
  5
797A
330
5F6E
100
AcDbEntity
  8
0
 48
5.0
100
AcDbCircle
 10
1095.670564628051
 20
135.4610454167519
 30
0.0
 40
0.07874
100
AcDbArc
 50
225.0000000000047
 51
270.0
  0
ARC
  5
797B
330
5F6E
100
AcDbEntity
  8
0
100
AcDbCircle
 10
1094.900280065621
 20
136.2313299792109
 30
0.0
 40
0.07874
100
AcDbArc
 50
180.0
 51
225.0000000000047
  0
LINE
  5
797C
330
5F6E
100
AcDbEntity
  8
0
 48
5.0
100
AcDbLine
 10
1095.614887040099
 20
135.4053678287997
 30
0.0
 11
1094.844602477669
 21
136.1756523912587
 31
0.0
  0
POINT
  5
797D
330
5F6E
100
AcDbEntity
  8
标注
 48
5.0
100
AcDbPoint
 10
1094.821540065595
 20
136.1987148033037
 30
0.0
  0
POINT
  5
797E
330
5F6E
100
AcDbEntity
  8
标注
 48
5.0
100
AcDbPoint
 10
1095.637949452144
 20
135.3823054167548
 30
0.0
  0
ARC
  5
797F
330
5F6E
100
AcDbEntity
  8
0
 48
5.0
100
AcDbCircle
 10
1125.972451503175
 20
135.4610454167519
 30
0.0
 40
0.07874
100
AcDbArc
 50
270.0
 51
314.9999999999953
  0
ARC
  5
7980
330
5F6E
100
AcDbEntity
  8
0
100
AcDbCircle
 10
1126.742736065605
 20
136.2313299791818
 30
0.0
 40
0.07874
100
AcDbArc
 50
314.9999999999953
 51
0.0
  0
LINE
  5
7981
330
5F6E
100
AcDbEntity
  8
0
 48
5.0
100
AcDbLine
 10
1126.028129091127
 20
135.4053678287997
 30
0.0
 11
1126.798413653557
 21
136.1756523912296
 31
0.0
  0
POINT
  5
7982
330
5F6E
100
AcDbEntity
  8
标注
 48
5.0
100
AcDbPoint
 10
1126.821476065602
 20
136.1987148033037
 30
0.0
 50
180.0
  0
POINT
  5
7983
330
5F6E
100
AcDbEntity
  8
标注
 48
5.0
100
AcDbPoint
 10
1126.005066679053
 20
135.3823054167548
 30
0.0
 50
180.0
  0
ARC
  5
7984
330
5F6E
100
AcDbEntity
  8
0
 48
5.0
100
AcDbCircle
 10
1125.972451503175
 20
152.3035314167315
 30
0.0
 40
0.07874
100
AcDbArc
 50
45.00000000000467
 51
90.0
  0
ARC
  5
7985
330
5F6E
100
AcDbEntity
  8
0
100
AcDbCircle
 10
1126.742736065605
 20
151.5332468543016
 30
0.0
 40
0.07874
100
AcDbArc
 50
0.0
 51
45.00000000000467
  0
LINE
  5
7986
330
5F6E
100
AcDbEntity
  8
0
 48
5.0
100
AcDbLine
 10
1126.028129091127
 20
152.3592090046837
 30
0.0
 11
1126.798413653557
 21
151.5889244422538
 31
0.0
  0
POINT
  5
7987
330
5F6E
100
AcDbEntity
  8
标注
 48
5.0
100
AcDbPoint
 10
1126.821476065602
 20
151.5658620302089
 30
0.0
 50
180.0
  0
POINT
  5
7988
330
5F6E
100
AcDbEntity
  8
标注
 48
5.0
100
AcDbPoint
 10
1126.005066679053
 20
152.3822714167578
 30
0.0
 50
180.0
  0
POINT
  5
7989
330
5F6E
100
AcDbEntity
  8
标注
 48
5.0
100
AcDbPoint
 10
1111.235720799615
 20
155.3822654168285
 30
0.0
  0
POINT
  5
798A
330
5F6E
100
AcDbEntity
  8
标注
 48
5.0
100
AcDbPoint
 10
1114.235714799715
 20
152.3822714167578
 30
0.0
  0
LINE
  5
798B
330
5F6E
100
AcDbEntity
  8
0
100
AcDbLine
 10
1094.821540065595
 20
177.6263846381747
 30
0.0
 11
1095.703428065598
 21
177.6263846381747
 31
0.0
  0
LINE
  5
798C
330
5F6E
100
AcDbEntity
  8
虚线
 48
5.0
100
AcDbLine
 10
1095.821538065609
 20
177.5082746381935
 30
0.0
 11
1095.821538065609
 21
169.0826919703517
 31
0.0
  0
ARC
  5
798D
330
5F6E
100
AcDbEntity
  8
虚线
 48
5.0
100
AcDbCircle
 10
1096.215238065595
 20
169.0826919703517
 30
0.0
 40
0.3937
100
AcDbArc
 50
180.0
 51
268.8525960597513
  0
LINE
  5
798E
330
5F6E
100
AcDbEntity
  8
虚线
 48
5.0
100
AcDbLine
 10
1096.207354365576
 20
168.6890709123812
 30
0.0
 11
1102.465064071226
 21
168.5637374091724
 31
0.0
  0
LINE
  5
798F
330
5F6E
100
AcDbEntity
  8
虚线
 48
5.0
100
AcDbLine
 10
1113.821502065596
 20
169.0826919697696
 30
0.0
 11
1113.821502065596
 21
177.5082746381935
 31
0.0
  0
LINE
  5
7990
330
5F6E
100
AcDbEntity
  8
0
100
AcDbLine
 10
1113.939612065607
 20
177.6263846381747
 30
0.0
 11
1114.7033900656
 21
177.6263846381747
 31
0.0
  0
LINE
  5
7991
330
5F6E
100
AcDbEntity
  8
虚线
 48
5.0
100
AcDbLine
 10
1107.17797553809
 20
168.5637374091724
 30
0.0
 11
1113.43568576493
 21
168.68907091177
 31
0.0
  0
ARC
  5
7992
330
5F6E
100
AcDbEntity
  8
虚线
 48
5.0
100
AcDbCircle
 10
1113.42780206561
 20
169.0826919697696
 30
0.0
 40
0.3937
100
AcDbArc
 50
271.1474038551878
 51
0.0
  0
LINE
  5
7993
330
5F6E
100
AcDbEntity
  8
0
100
AcDbLine
 10
1095.703428065598
 20
177.6263846381747
 30
0.0
 11
1113.939612065607
 21
177.6263846381747
 31
0.0
  0
LINE
  5
7994
330
5F6E
100
AcDbEntity
  8
虚线
 48
5.0
100
AcDbLine
 10
1107.17797553809
 20
168.5637374091724
 30
0.0
 11
1102.465064071226
 21
168.5637374091724
 31
0.0
  0
LINE
  5
7995
330
5F6E
100
AcDbEntity
  8
中心线
 48
2.0
100
AcDbLine
 10
1104.821520065617
 20
167.3331081316695
 30
0.0
 11
1104.821520065617
 21
169.6762566867231
 31
0.0
  0
ARC
  5
7996
330
5F6E
100
AcDbEntity
  8
虚线
 48
5.0
100
AcDbCircle
 10
1102.465064071196
 20
168.4456274091911
 30
0.0
 40
0.11811
100
AcDbArc
 50
26.56505108236813
 51
90.0
  0
ARC
  5
7997
330
5F6E
100
AcDbEntity
  8
虚线
 48
5.0
100
AcDbCircle
 10
1107.177976060009
 20
168.4456274091911
 30
0.0
 40
0.11811
100
AcDbArc
 50
90.0
 51
153.4349486715375
  0
ARC
  5
7998
330
5F6E
100
AcDbEntity
  8
虚线
 48
5.0
100
AcDbCircle
 10
1102.692668062799
 20
168.3865724092005
 30
0.0
 40
0.059055
100
AcDbArc
 50
206.5650516506218
 51
269.9999999583118
  0
ARC
  5
7999
330
5F6E
100
AcDbEntity
  8
虚线
 48
5.0
100
AcDbCircle
 10
1106.950372068405
 20
168.3865724092005
 30
0.0
 40
0.059055
100
AcDbArc
 50
270.0000000416882
 51
333.4349477811253
  0
LINE
  5
799A
330
5F6E
100
AcDbEntity
  8
虚线
 48
5.0
100
AcDbLine
 10
1107.00319246615
 20
168.3601622103136
 30
0.0
 11
1107.07233526449
 21
168.4984478069649
 31
0.0
  0
LINE
  5
799B
330
5F6E
100
AcDbEntity
  8
虚线
 48
5.0
100
AcDbLine
 10
1102.692668062799
 20
168.3275174091808
 30
0.0
 11
1103.049870065607
 21
168.3275174091808
 31
0.0
  0
LINE
  5
799C
330
5F6E
100
AcDbEntity
  8
虚线
 48
5.0
100
AcDbLine
 10
1106.593170065598
 20
168.2684624091902
 30
0.0
 11
1106.593170065598
 21
168.3275174091808
 31
0.0
  0
LINE
  5
799D
330
5F6E
100
AcDbEntity
  8
虚线
 48
5.0
100
AcDbLine
 10
1102.639847665055
 20
168.3601622103136
 30
0.0
 11
1102.570704866744
 21
168.4984478069649
 31
0.0
  0
LINE
  5
799E
330
5F6E
100
AcDbEntity
  8
虚线
 48
5.0
100
AcDbLine
 10
1103.049870065607
 20
168.2684624091902
 30
0.0
 11
1103.049870065607
 21
168.3275174091808
 31
0.0
  0
LINE
  5
799F
330
5F6E
100
AcDbEntity
  8
虚线
 48
5.0
100
AcDbLine
 10
1106.593170065598
 20
168.3275174091808
 30
0.0
 11
1106.950372068405
 21
168.3275174091808
 31
0.0
  0
LINE
  5
79A0
330
5F6E
100
AcDbEntity
  8
虚线
 48
5.0
100
AcDbLine
 10
1103.049870065607
 20
168.3275174091808
 30
0.0
 11
1106.593170065598
 21
168.3275174091808
 31
0.0
  0
LINE
  5
79A1
330
5F6E
100
AcDbEntity
  8
0
100
AcDbLine
 10
1102.587027267281
 20
168.3337520114559
 30
0.0
 11
1102.51788446897
 21
168.472037608078
 31
0.0
  0
ARC
  5
79A2
330
5F6E
100
AcDbEntity
  8
0
100
AcDbCircle
 10
1102.465064071196
 20
168.4456274091911
 30
0.0
 40
0.059055
100
AcDbArc
 50
26.56505108236813
 51
90.0
  0
LINE
  5
79A3
330
5F6E
100
AcDbEntity
  8
0
100
AcDbLine
 10
1096.206172091644
 20
168.6300357039848
 30
0.0
 11
1102.465064071226
 21
168.5046824091818
 31
0.0
  0
ARC
  5
79A4
330
5F6E
100
AcDbEntity
  8
0
100
AcDbCircle
 10
1096.215238065595
 20
169.0826999262621
 30
0.0
 40
0.452755
100
AcDbArc
 50
180.0
 51
268.8526316452221
  0
ARC
  5
79A5
330
5F6E
100
AcDbEntity
  8
0
100
AcDbCircle
 10
1102.692668062799
 20
168.3865724092005
 30
0.0
 40
0.11811
100
AcDbArc
 50
206.5650516506218
 51
269.9999999583118
  0
LINE
  5
79A6
330
5F6E
100
AcDbEntity
  8
0
100
AcDbLine
 10
1102.692668062799
 20
168.2684624091902
 30
0.0
 11
1103.049870065607
 21
168.2684624091902
 31
0.0
  0
LINE
  5
79A7
330
5F6E
100
AcDbEntity
  8
0
100
AcDbLine
 10
1103.049870065607
 20
168.2684624091902
 30
0.0
 11
1106.593170065598
 21
168.2684624091902
 31
0.0
  0
LINE
  5
79A8
330
5F6E
100
AcDbEntity
  8
0
100
AcDbLine
 10
1106.593170065598
 20
168.2684624091902
 30
0.0
 11
1106.950372068405
 21
168.2684624091902
 31
0.0
  0
ARC
  5
79A9
330
5F6E
100
AcDbEntity
  8
0
100
AcDbCircle
 10
1106.950372068405
 20
168.3865724092005
 30
0.0
 40
0.11811
100
AcDbArc
 50
270.0000000416882
 51
333.4349477811253
  0
LINE
  5
79AA
330
5F6E
100
AcDbEntity
  8
0
100
AcDbLine
 10
1107.056012863924
 20
168.3337520114559
 30
0.0
 11
1107.125155662235
 21
168.472037608078
 31
0.0
  0
ARC
  5
79AB
330
5F6E
100
AcDbEntity
  8
0
100
AcDbCircle
 10
1107.177976060009
 20
168.4456274091911
 30
0.0
 40
0.059055
100
AcDbArc
 50
90.0
 51
153.4349486715375
  0
LINE
  5
79AC
330
5F6E
100
AcDbEntity
  8
0
100
AcDbLine
 10
1107.17797553809
 20
168.5046824091818
 30
0.0
 11
1113.436868038776
 21
168.6300357033736
 31
0.0
  0
ARC
  5
79AD
330
5F6E
100
AcDbEntity
  8
0
100
AcDbCircle
 10
1113.42780206561
 20
169.08269992568
 30
0.0
 40
0.452755
100
AcDbArc
 50
271.147368269717
 51
0.0
  0
LINE
  5
79AE
330
5F6E
100
AcDbEntity
  8
0
100
AcDbLine
 10
1113.880557065616
 20
169.08269992568
 30
0.0
 11
1113.880557065616
 21
177.5082746381935
 31
0.0
  0
LINE
  5
79AF
330
5F6E
100
AcDbEntity
  8
0
100
AcDbLine
 10
1113.939612065607
 20
177.5673296381841
 30
0.0
 11
1114.7033900656
 21
177.5673296381841
 31
0.0
  0
LINE
  5
79B0
330
5F6E
100
AcDbEntity
  8
0
100
AcDbLine
 10
1094.821540065595
 20
177.5673296381841
 30
0.0
 11
1095.703428065598
 21
177.5673296381841
 31
0.0
  0
LINE
  5
79B1
330
5F6E
100
AcDbEntity
  8
0
100
AcDbLine
 10
1095.762483065618
 20
177.5082746381935
 30
0.0
 11
1095.762483065618
 21
169.0826999262621
 31
0.0
  0
LINE
  5
79B2
330
5F6E
100
AcDbEntity
  8
0
100
AcDbLine
 10
1094.821540065595
 20
177.6263846381747
 30
0.0
 11
1094.821540065595
 21
177.5673296381841
 31
0.0
  0
ARC
  5
79B3
330
5F6E
100
AcDbEntity
  8
虚线
 48
5.0
100
AcDbCircle
 10
1095.703428065598
 20
177.5082746381935
 30
0.0
 40
0.11811
100
AcDbArc
 50
0.0
 51
90.0
  0
ARC
  5
79B4
330
5F6E
100
AcDbEntity
  8
虚线
 48
5.0
100
AcDbCircle
 10
1113.939612065607
 20
177.5082746381935
 30
0.0
 40
0.11811
100
AcDbArc
 50
90.0
 51
180.0
  0
ARC
  5
79B5
330
5F6E
100
AcDbEntity
  8
0
100
AcDbCircle
 10
1113.939612065607
 20
177.5082746381935
 30
0.0
 40
0.059055
100
AcDbArc
 50
90.0
 51
180.0
  0
ARC
  5
79B6
330
5F6E
100
AcDbEntity
  8
0
100
AcDbCircle
 10
1095.703428065598
 20
177.5082746381935
 30
0.0
 40
0.059055
100
AcDbArc
 50
0.0
 51
90.0
  0
LINE
  5
79B7
330
5F6E
100
AcDbEntity
  8
0
100
AcDbLine
 10
1126.821476065602
 20
177.6263846381747
 30
0.0
 11
1125.939588065599
 21
177.6263846381747
 31
0.0
  0
LINE
  5
79B8
330
5F6E
100
AcDbEntity
  8
虚线
 48
5.0
100
AcDbLine
 10
1125.821478065617
 20
177.5082746381935
 30
0.0
 11
1125.821478065617
 21
170.0852494108379
 31
0.0
  0
ARC
  5
79B9
330
5F6E
100
AcDbEntity
  8
虚线
 48
5.0
100
AcDbCircle
 10
1125.427778065602
 20
170.0852494108379
 30
0.0
 40
0.3937
100
AcDbArc
 50
272.7129419935794
 51
0.0
  0
LINE
  5
79BA
330
5F6E
100
AcDbEntity
  8
0
100
AcDbLine
 10
1126.821476065602
 20
177.5673296381841
 30
0.0
 11
1125.939588065599
 21
177.5673296381841
 31
0.0
  0
LINE
  5
79BB
330
5F6E
100
AcDbEntity
  8
0
100
AcDbLine
 10
1125.880533065608
 20
177.5082746381935
 30
0.0
 11
1125.880533065608
 21
170.0852835629606
 31
0.0
  0
ARC
  5
79BC
330
5F6E
100
AcDbEntity
  8
0
100
AcDbCircle
 10
1125.427778065602
 20
170.0852835629606
 30
0.0
 40
0.452755
100
AcDbArc
 50
272.7122796201583
 51
0.0
  0
LINE
  5
79BD
330
5F6E
100
AcDbEntity
  8
0
100
AcDbLine
 10
1126.821476065602
 20
177.6263846381747
 30
0.0
 11
1126.821476065602
 21
177.5673296381841
 31
0.0
  0
ARC
  5
79BE
330
5F6E
100
AcDbEntity
  8
虚线
 48
5.0
100
AcDbCircle
 10
1125.939588065599
 20
177.5082746381935
 30
0.0
 40
0.11811
100
AcDbArc
 50
90.0
 51
180.0
  0
ARC
  5
79BF
330
5F6E
100
AcDbEntity
  8
0
100
AcDbCircle
 10
1125.939588065599
 20
177.5082746381935
 30
0.0
 40
0.059055
100
AcDbArc
 50
90.0
 51
180.0
  0
LINE
  5
79C0
330
5F6E
100
AcDbEntity
  8
虚线
 48
5.0
100
AcDbLine
 10
1114.821500065581
 20
177.5082746381935
 30
0.0
 11
1114.821500065581
 21
170.085249412817
 31
0.0
  0
LINE
  5
79C1
330
5F6E
100
AcDbEntity
  8
0
100
AcDbLine
 10
1114.762445065591
 20
177.5082746381935
 30
0.0
 11
1114.762445065591
 21
170.0852835649688
 31
0.0
  0
ARC
  5
79C2
330
5F6E
100
AcDbEntity
  8
虚线
 48
5.0
100
AcDbCircle
 10
1114.7033900656
 20
177.5082746381935
 30
0.0
 40
0.11811
100
AcDbArc
 50
0.0
 51
90.0
  0
ARC
  5
79C3
330
5F6E
100
AcDbEntity
  8
0
100
AcDbCircle
 10
1114.7033900656
 20
177.5082746381935
 30
0.0
 40
0.059055
100
AcDbArc
 50
0.0
 51
90.0
  0
LINE
  5
79C4
330
5F6E
100
AcDbEntity
  8
0
100
AcDbLine
 10
1125.939588065599
 20
177.6263846381747
 30
0.0
 11
1114.7033900656
 21
177.6263846381747
 31
0.0
  0
LINE
  5
79C5
330
5F6E
100
AcDbEntity
  8
虚线
 48
5.0
100
AcDbLine
 10
1115.196565422191
 20
169.6919906684028
 30
0.0
 11
1117.965033071222
 21
169.5608062811783
 31
0.0
  0
ARC
  5
79C6
330
5F6E
100
AcDbEntity
  8
虚线
 48
5.0
100
AcDbCircle
 10
1115.215200065596
 20
170.085249412817
 30
0.0
 40
0.3937
100
AcDbArc
 50
180.0
 51
267.2870574555715
  0
LINE
  5
79C7
330
5F6E
100
AcDbEntity
  8
虚线
 48
5.0
100
AcDbLine
 10
1122.677944538087
 20
169.5608062811783
 30
0.0
 11
1125.446412705224
 21
169.69199066622
 31
0.0
  0
LINE
  5
79C8
330
5F6E
100
AcDbEntity
  8
虚线
 48
5.0
100
AcDbLine
 10
1122.677944538087
 20
169.5608062811783
 30
0.0
 11
1117.965033071222
 21
169.5608062811783
 31
0.0
  0
LINE
  5
79C9
330
5F6E
100
AcDbEntity
  8
中心线
 48
2.0
100
AcDbLine
 10
1120.321489065614
 20
168.2593979984934
 30
0.0
 11
1120.321489065614
 21
170.7441045638819
 31
0.0
  0
ARC
  5
79CA
330
5F6E
100
AcDbEntity
  8
虚线
 48
5.0
100
AcDbCircle
 10
1117.965033071193
 20
169.4426962811971
 30
0.0
 40
0.11811
100
AcDbArc
 50
26.56505108236813
 51
90.0
  0
ARC
  5
79CB
330
5F6E
100
AcDbEntity
  8
虚线
 48
5.0
100
AcDbCircle
 10
1122.677945060005
 20
169.4426962811971
 30
0.0
 40
0.11811
100
AcDbArc
 50
90.0
 51
153.4349486715375
  0
ARC
  5
79CC
330
5F6E
100
AcDbEntity
  8
虚线
 48
5.0
100
AcDbCircle
 10
1118.192637062796
 20
169.3836412811773
 30
0.0
 40
0.059055
100
AcDbArc
 50
206.5650516506218
 51
269.9999999583118
  0
ARC
  5
79CD
330
5F6E
100
AcDbEntity
  8
虚线
 48
5.0
100
AcDbCircle
 10
1122.450341068402
 20
169.3836412811773
 30
0.0
 40
0.059055
100
AcDbArc
 50
270.0000000416882
 51
333.4349477811253
  0
LINE
  5
79CE
330
5F6E
100
AcDbEntity
  8
虚线
 48
5.0
100
AcDbLine
 10
1122.503161466147
 20
169.3572310823195
 30
0.0
 11
1122.572304264487
 21
169.4955166789708
 31
0.0
  0
LINE
  5
79CF
330
5F6E
100
AcDbEntity
  8
虚线
 48
5.0
100
AcDbLine
 10
1118.192637062796
 20
169.3245862811867
 30
0.0
 11
1118.549839065604
 21
169.3245862811867
 31
0.0
  0
LINE
  5
79D0
330
5F6E
100
AcDbEntity
  8
虚线
 48
5.0
100
AcDbLine
 10
1122.093139065595
 20
169.2655312811961
 30
0.0
 11
1122.093139065595
 21
169.3245862811867
 31
0.0
  0
LINE
  5
79D1
330
5F6E
100
AcDbEntity
  8
虚线
 48
5.0
100
AcDbLine
 10
1118.139816665052
 20
169.3572310823195
 30
0.0
 11
1118.070673866741
 21
169.4955166789708
 31
0.0
  0
LINE
  5
79D2
330
5F6E
100
AcDbEntity
  8
虚线
 48
5.0
100
AcDbLine
 10
1118.549839065604
 20
169.2655312811961
 30
0.0
 11
1118.549839065604
 21
169.3245862811867
 31
0.0
  0
LINE
  5
79D3
330
5F6E
100
AcDbEntity
  8
虚线
 48
5.0
100
AcDbLine
 10
1122.093139065595
 20
169.3245862811867
 30
0.0
 11
1122.450341068402
 21
169.3245862811867
 31
0.0
  0
LINE
  5
79D4
330
5F6E
100
AcDbEntity
  8
虚线
 48
5.0
100
AcDbLine
 10
1118.549839065604
 20
169.3245862811867
 30
0.0
 11
1122.093139065595
 21
169.3245862811867
 31
0.0
  0
LINE
  5
79D5
330
5F6E
100
AcDbEntity
  8
0
100
AcDbLine
 10
1118.086996267278
 20
169.3308208834327
 30
0.0
 11
1118.017853468967
 21
169.4691064800839
 31
0.0
  0
ARC
  5
79D6
330
5F6E
100
AcDbEntity
  8
0
100
AcDbCircle
 10
1117.965033071193
 20
169.4426962811971
 30
0.0
 40
0.059055
100
AcDbArc
 50
26.56505108236813
 51
90.0
  0
LINE
  5
79D7
330
5F6E
100
AcDbEntity
  8
0
100
AcDbLine
 10
1115.193775454119
 20
169.6330357611417
 30
0.0
 11
1117.965033071222
 21
169.5017512811877
 31
0.0
  0
ARC
  5
79D8
330
5F6E
100
AcDbEntity
  8
0
100
AcDbCircle
 10
1115.215200065596
 20
170.0852835649688
 30
0.0
 40
0.452755
100
AcDbArc
 50
180.0
 51
267.2877198289929
  0
ARC
  5
79D9
330
5F6E
100
AcDbEntity
  8
0
100
AcDbCircle
 10
1118.192637062796
 20
169.3836412811773
 30
0.0
 40
0.11811
100
AcDbArc
 50
206.5650516506218
 51
269.9999999583118
  0
LINE
  5
79DA
330
5F6E
100
AcDbEntity
  8
0
100
AcDbLine
 10
1118.192637062796
 20
169.2655312811961
 30
0.0
 11
1118.549839065604
 21
169.2655312811961
 31
0.0
  0
LINE
  5
79DB
330
5F6E
100
AcDbEntity
  8
0
  6
Continuous
100
AcDbLine
 10
1118.549839065604
 20
169.2655312811961
 30
0.0
 11
1122.093139065595
 21
169.2655312811961
 31
0.0
  0
LINE
  5
79DC
330
5F6E
100
AcDbEntity
  8
0
100
AcDbLine
 10
1122.093139065595
 20
169.2655312811961
 30
0.0
 11
1122.450341068402
 21
169.2655312811961
 31
0.0
  0
ARC
  5
79DD
330
5F6E
100
AcDbEntity
  8
0
100
AcDbCircle
 10
1122.450341068402
 20
169.3836412811773
 30
0.0
 40
0.11811
100
AcDbArc
 50
270.0000000416882
 51
333.4349477811253
  0
LINE
  5
79DE
330
5F6E
100
AcDbEntity
  8
0
100
AcDbLine
 10
1122.555981863921
 20
169.3308208834327
 30
0.0
 11
1122.625124662232
 21
169.4691064800839
 31
0.0
  0
ARC
  5
79DF
330
5F6E
100
AcDbEntity
  8
0
100
AcDbCircle
 10
1122.677945060005
 20
169.4426962811971
 30
0.0
 40
0.059055
100
AcDbArc
 50
90.0
 51
153.4349486715375
  0
LINE
  5
79E0
330
5F6E
100
AcDbEntity
  8
0
100
AcDbLine
 10
1122.677944538087
 20
169.5017512811877
 30
0.0
 11
1125.449202672743
 21
169.6330357589589
 31
0.0
  0
LINE
  5
79E1
330
5F6E
100
AcDbEntity
  8
0
100
AcDbLine
 10
1095.703428065598
 20
177.5673296381841
 30
0.0
 11
1125.939588065599
 21
177.5673296381841
 31
0.0
  0
LINE
  5
79E2
330
5F6E
100
AcDbEntity
  8
0
100
AcDbLine
 10
1102.465064071196
 20
168.5046824091818
 30
0.0
 11
1107.177976060009
 21
168.5046824091818
 31
0.0
  0
LINE
  5
79E3
330
5F6E
100
AcDbEntity
  8
0
100
AcDbLine
 10
1117.965033071193
 20
169.5017512811877
 30
0.0
 11
1122.677945060005
 21
169.5017512811877
 31
0.0
  0
LINE
  5
79E4
330
5F6E
100
AcDbEntity
  8
中心线
  6
Continuous
 62
     1
100
AcDbLine
 10
1125.762716364921
 20
101.4712393542974
 30
0.0
 11
1125.762716364921
 21
115.6838093543007
 31
0.0
  0
ARC
  5
79E5
330
5F6E
100
AcDbEntity
  8
中心线
  6
Continuous
 62
     1
100
AcDbCircle
 10
1125.290276364937
 20
115.6838093543007
 30
0.0
 40
0.4724400000000001
100
AcDbArc
 50
0.0
 51
90.0
  0
LINE
  5
79E6
330
5F6E
100
AcDbEntity
  8
中心线
  6
Continuous
 62
     1
100
AcDbLine
 10
1113.716615540984
 20
116.1562493542839
 30
0.0
 11
1113.764132331028
 21
116.1562493542839
 31
0.0
  0
ARC
  5
79E7
330
5F6E
100
AcDbEntity
  8
中心线
  6
Continuous
 62
     1
100
AcDbCircle
 10
1113.912306596399
 20
116.6286893542961
 30
0.0
 40
0.4724400000000001
100
AcDbArc
 50
225.0000000000047
 51
270.0
  0
LINE
  5
79E8
330
5F6E
100
AcDbEntity
  8
中心线
  6
Continuous
 62
     1
100
AcDbLine
 10
1096.07773636493
 20
100.9987993542851
 30
0.0
 11
1125.290276364937
 21
100.9987993542851
 31
0.0
  0
ARC
  5
79E9
330
5F6E
100
AcDbEntity
  8
中心线
  6
Continuous
 62
     1
100
AcDbCircle
 10
1125.290276364937
 20
101.4712393542974
 30
0.0
 40
0.4724400000000001
100
AcDbArc
 50
270.0
 51
0.0
  0
LINE
  5
79EA
330
5F6E
100
AcDbEntity
  8
中心线
  6
Continuous
 62
     1
100
AcDbLine
 10
1095.605296364917
 20
101.4712393542974
 30
0.0
 11
1095.605296364917
 21
118.6838033542841
 31
0.0
  0
ARC
  5
79EB
330
5F6E
100
AcDbEntity
  8
中心线
  6
Continuous
 62
     1
100
AcDbCircle
 10
1096.07773636493
 20
118.6838033542841
 30
0.0
 40
0.4724400000000001
100
AcDbArc
 50
90.0
 51
180.0
  0
ARC
  5
79EC
330
5F6E
100
AcDbEntity
  8
中心线
  6
Continuous
 62
     1
100
AcDbCircle
 10
1096.07773636493
 20
101.4712393542974
 30
0.0
 40
0.4724400000000001
100
AcDbArc
 50
180.0
 51
270.0
  0
LINE
  5
79ED
330
5F6E
100
AcDbEntity
  8
中心线
  6
Continuous
 62
     1
100
AcDbLine
 10
1096.07773636493
 20
119.1562433542964
 30
0.0
 11
1110.520930485557
 21
119.1562433542964
 31
0.0
  0
ARC
  5
79EE
330
5F6E
100
AcDbEntity
  8
中心线
  6
Continuous
 62
     1
100
AcDbCircle
 10
1110.520930485557
 20
118.6838033542841
 30
0.0
 40
0.4724400000000001
100
AcDbArc
 50
45.00000000000467
 51
90.0
  0
LINE
  5
79EF
330
5F6E
100
AcDbEntity
  8
中心线
  6
Continuous
 62
     1
100
AcDbLine
 10
1110.643251445338
 20
119.1562433542964
 30
0.0
 11
1110.716621540972
 21
119.1562433542964
 31
0.0
  0
LINE
  5
79F0
330
5F6E
100
AcDbEntity
  8
中心线
  6
Continuous
 62
     1
100
AcDbLine
 10
1110.716621540972
 20
119.1562433542964
 30
0.0
 11
1110.762535823092
 21
119.1103290721763
 31
0.0
  0
LINE
  5
79F1
330
5F6E
100
AcDbEntity
  8
中心线
  6
Continuous
 62
     1
100
AcDbLine
 10
1110.854996013271
 20
119.0178688819975
 30
0.0
 11
1113.578241068686
 21
116.2946238265828
 31
0.0
  0
TEXT
  5
79F2
330
5F6E
100
AcDbEntity
  8
标注
100
AcDbText
 10
1105.771018203802
 20
163.4982319323041
 30
0.0
 40
0.7874015748031497
  1
FRONT VIEW
100
AcDbText
  0
TEXT
  5
79F3
330
5F6E
100
AcDbEntity
  8
标注
100
AcDbText
 10
1106.491867203376
 20
127.3809261791192
 30
0.0
 40
0.7874015748031497
  1
OVERHEAD VIEW
100
AcDbText
  0
TEXT
  5
79F4
330
5F6E
100
AcDbEntity
  8
标注
100
AcDbText
 10
1112.439453189542
 20
95.91791794550095
 30
0.0
 40
0.7874015748031497
  1
 CUTOUT
100
AcDbText
  0
LINE
  5
79F5
330
5F6E
100
AcDbEntity
  8
中心线
  6
Continuous
 62
     1
100
AcDbLine
 10
1104.774047108975
 20
96.17111941280576
 30
0.0
 11
1110.990852113059
 21
96.17111941280576
 31
0.0
  0
DIMENSION
  5
7A01
330
5F6E
100
AcDbEntity
  8
标注
100
AcDbDimension
  2
*D20
 10
1125.762716364921
 20
98.69227685844657
 30
0.0
 11
1110.684006364925
 21
98.69227685844657
 31
0.0
 70
    32
 71
     5
 42
30.15741999999091
  3
副本STANDARD
100
AcDbAlignedDimension
 13
1095.60529636493
 23
101.4712393542974
 33
0.0
 14
1125.762716364921
 24
101.4712393542974
 34
0.0
100
AcDbRotatedDimension
1001
ACAD
1000
DSTYLE
1002
{
1070
   345
1005
5F5E
1070
   346
1005
5F5E
1070
   347
1005
5F5E
1002
}
  0
DIMENSION
  5
7A0F
330
5F6E
100
AcDbEntity
  8
标注
100
AcDbDimension
  2
*D21
 10
1128.09886118723
 20
116.1562493542839
 30
0.0
 11
1128.09886118723
 21
108.5775243542846
 31
0.0
 70
    32
 71
     5
 42
15.15744999999879
  3
副本STANDARD
100
AcDbAlignedDimension
 13
1125.290276364937
 23
100.9987993542851
 33
0.0
 14
1125.290276364937
 24
116.1562493542839
 34
0.0
 50
90.0
100
AcDbRotatedDimension
1001
ACAD
1000
DSTYLE
1002
{
1070
   345
1005
5F5E
1070
   346
1005
5F5E
1070
   347
1005
5F5E
1002
}
  0
DIMENSION
  5
7A1D
330
5F6E
100
AcDbEntity
  8
标注
100
AcDbDimension
  2
*D22
 10
1092.955503561517
 20
119.1562433542841
 30
0.0
 11
1092.955503561517
 21
110.0775213542848
 31
0.0
 70
    32
 71
     5
 42
18.15744399999903
  3
副本STANDARD
100
AcDbAlignedDimension
 13
1096.07773636493
 23
100.9987993542851
 33
0.0
 14
1096.07773636493
 24
119.1562433542841
 34
0.0
 50
90.0
100
AcDbRotatedDimension
1001
ACAD
1000
DSTYLE
1002
{
1070
   345
1005
5F5E
1070
   346
1005
5F5E
1070
   347
1005
5F5E
1002
}
  0
DIMENSION
  5
7A2B
330
5F6E
100
AcDbEntity
  8
标注
100
AcDbDimension
  2
*D23
 10
1110.716621540972
 20
121.7462363368301
 30
0.0
 11
1103.160958952945
 21
121.7462363368301
 31
0.0
 70
    32
 71
     5
 42
15.11132517605438
  3
副本STANDARD
100
AcDbAlignedDimension
 13
1095.605296364917
 23
118.2417923421063
 33
0.0
 14
1110.716621540972
 24
119.1562433542964
 34
0.0
100
AcDbRotatedDimension
1001
ACAD
1000
DSTYLE
1002
{
1070
   345
1005
5F5E
1070
   346
1005
5F5E
1070
   347
1005
5F5E
1002
}
  0
LINE
  5
7A39
330
5F6E
100
AcDbEntity
  8
中心线
  6
Continuous
 62
     1
100
AcDbLine
 10
1113.685024982517
 20
116.1878399127516
 30
0.0
 11
1113.716615540984
 21
116.1562493542839
 31
0.0
  0
LINE
  5
7A3A
330
5F6E
100
AcDbEntity
  8
中心线
  6
Continuous
 62
     1
100
AcDbLine
 10
1113.912306596399
 20
116.1562493542839
 30
0.0
 11
1125.290276364937
 21
116.1562493542839
 31
0.0
  0
DIMENSION
  5
7A41
330
5F6E
100
AcDbEntity
  8
标注
100
AcDbDimension
  2
*D25
 10
1125.762716364937
 20
118.1757540636204
 30
0.0
 11
1119.739665952961
 21
118.1757540636204
 31
0.0
 70
    32
 71
     5
 42
12.04610082395311
  3
副本STANDARD
100
AcDbAlignedDimension
 13
1113.716615540984
 23
116.1562493542839
 33
0.0
 14
1125.762716364937
 24
115.6838093543007
 34
0.0
100
AcDbRotatedDimension
1001
ACAD
1000
DSTYLE
1002
{
1070
   345
1005
5F5E
1070
   346
1005
5F5E
1070
   347
1005
5F5E
1002
}
  0
DIMENSION
  5
7A4F
330
5F6E
100
AcDbEntity
  8
标注
100
AcDbDimension
  2
*D26
 10
1113.578241068686
 20
116.2946238265828
 30
0.0
 11
1109.536117818651
 21
116.3062552574381
 31
0.0
 70
    34
 71
     5
 42
2.356194490192421
  3
STANDARD
100
AcDb2LineAngularDimension
 13
1096.07773636493
 23
119.1562433542964
 33
0.0
 14
1110.520930485557
 24
119.1562433542964
 34
0.0
 15
1110.854996013271
 25
119.0178688819975
 35
0.0
 16
1108.535335086761
 26
116.9749569000856
 36
0.0
  0
DIMENSION
  5
7A71
330
5F6E
100
AcDbEntity
  8
标注
100
AcDbDimension
  2
*D27
 10
1096.07773636493
 20
101.4712393542974
 30
0.0
 11
1096.734783217616
 21
102.4979080609405
 31
0.0
 70
   164
  1
6-<>
 71
     5
 42
0.4724400000001197
  3
副本STANDARD
100
AcDbRadialDimension
 15
1095.724822427152
 25
101.1571512995694
 35
0.0
 40
0.0
1001
ACAD
1000
DSTYLE
1002
{
1070
   288
1070
     1
1070
   345
1005
5F5E
1070
   346
1005
5F5E
1070
   347
1005
5F5E
1002
}
1001
ACAD_DSTYLE_DIMRADIAL_EXTENSION
1070
   387
1070
     1
1070
   388
1040
3.141592653589793
1070
   390
1040
4.712388980384689
  0
DIMENSION
  5
7A8C
330
5F6E
100
AcDbEntity
  8
标注
100
AcDbDimension
  2
*D28
 10
1113.821502065596
 20
133.4015040295038
 30
0.0
 11
1104.821520065603
 21
133.4015040295038
 31
0.0
 70
    32
 71
     5
 42
17.99996399998781
  3
副本STANDARD
100
AcDbAlignedDimension
 13
1095.821538065609
 23
136.7760034167546
 33
0.0
 14
1113.821502065596
 24
136.7760034167546
 34
0.0
100
AcDbRotatedDimension
1001
ACAD
1000
DSTYLE
1002
{
1070
   345
1005
5F5E
1070
   346
1005
5F5E
1070
   347
1005
5F5E
1002
}
  0
DIMENSION
  5
7A9A
330
5F6E
100
AcDbEntity
  8
标注
100
AcDbDimension
  2
*D29
 10
1125.821478065602
 20
133.4015040295038
 30
0.0
 11
1120.321489065599
 21
133.4015040295038
 31
0.0
 70
    32
 71
     5
 42
10.99997800000619
  3
副本STANDARD
100
AcDbAlignedDimension
 13
1114.821500065596
 23
136.7760034167546
 33
0.0
 14
1125.821478065602
 24
136.7760034167546
 34
0.0
100
AcDbRotatedDimension
1001
ACAD
1000
DSTYLE
1002
{
1070
   345
1005
5F5E
1070
   346
1005
5F5E
1070
   347
1005
5F5E
1002
}
  0
DIMENSION
  5
7AA8
330
5F6E
100
AcDbEntity
  8
标注
100
AcDbDimension
  2
*D30
 10
1126.821476065602
 20
131.4468068136693
 30
0.0
 11
1110.821508065612
 21
131.4468068136693
 31
0.0
 70
    32
 71
     5
 42
31.99993599998106
  3
副本STANDARD
100
AcDbAlignedDimension
 13
1094.821540065621
 23
136.2313299792109
 33
0.0
 14
1126.821476065602
 24
136.2313299792109
 34
0.0
100
AcDbRotatedDimension
1001
ACAD
1000
DSTYLE
1002
{
1070
   345
1005
5F5E
1070
   346
1005
5F5E
1070
   347
1005
5F5E
1002
}
  0
DIMENSION
  5
7ACC
330
5F6E
100
AcDbEntity
  8
标注
100
AcDbDimension
  2
*D31
 10
1128.360068711357
 20
151.3822734167579
 30
0.0
 11
1128.360068711357
 21
143.8822884167489
 31
0.0
 70
    32
 71
     5
 42
14.9999700000184
  3
副本STANDARD
100
AcDbAlignedDimension
 13
1125.427778065602
 23
136.3823034167395
 33
0.0
 14
1125.427778065602
 24
151.3822734167579
 34
0.0
 50
90.0
100
AcDbRotatedDimension
1001
ACAD
1000
DSTYLE
1002
{
1070
   345
1005
5F5E
1070
   346
1005
5F5E
1070
   347
1005
5F5E
1002
}
  0
DIMENSION
  5
7ADA
330
5F6E
100
AcDbEntity
  8
标注
100
AcDbDimension
  2
*D32
 10
1130.146582777385
 20
152.3822714167578
 30
0.0
 11
1130.146582777385
 21
143.8822884167565
 31
0.0
 70
    32
 71
     5
 42
16.99996600000304
  3
副本STANDARD
100
AcDbAlignedDimension
 13
1125.821478065602
 23
135.3823054167548
 33
0.0
 14
1125.821478065602
 24
152.3822714167578
 34
0.0
 50
90.0
100
AcDbRotatedDimension
1001
ACAD
1000
DSTYLE
1002
{
1070
   345
1005
5F5E
1070
   346
1005
5F5E
1070
   347
1005
5F5E
1002
}
  0
DIMENSION
  5
7AE8
330
5F6E
100
AcDbEntity
  8
标注
100
AcDbDimension
  2
*D33
 10
1092.627844085384
 20
154.3822674167413
 30
0.0
 11
1092.627844085384
 21
145.3822854167406
 31
0.0
 70
    32
 71
     5
 42
17.99996400000182
  3
副本STANDARD
100
AcDbAlignedDimension
 13
1096.215238065624
 23
136.3823034167395
 33
0.0
 14
1096.215238065595
 24
154.3822674167413
 34
0.0
 50
90.0
100
AcDbRotatedDimension
1001
ACAD
1000
DSTYLE
1002
{
1070
   345
1005
5F5E
1070
   346
1005
5F5E
1070
   347
1005
5F5E
1002
}
  0
DIMENSION
  5
7AF6
330
5F6E
100
AcDbEntity
  8
标注
100
AcDbDimension
  2
*D34
 10
1090.651928581377
 20
155.3822654167421
 30
0.0
 11
1090.651928581377
 21
145.3822854167486
 31
0.0
 70
    32
 71
     5
 42
19.99995999998731
  3
副本STANDARD
100
AcDbAlignedDimension
 13
1095.821538065609
 23
135.3823054167548
 33
0.0
 14
1095.821538065495
 24
155.3822654167421
 34
0.0
 50
90.0
100
AcDbRotatedDimension
1001
ACAD
1000
DSTYLE
1002
{
1070
   345
1005
5F5E
1070
   346
1005
5F5E
1070
   347
1005
5F5E
1002
}
  0
DIMENSION
  5
7B19
330
5F6E
100
AcDbEntity
  8
标注
100
AcDbDimension
  2
*D35
 10
1129.348942608154
 20
169.6263846381747
 30
0.0
 11
1129.348942608154
 21
173.6263846381749
 31
0.0
 70
    32
 71
     5
 42
8.0
  3
副本STANDARD
100
AcDbAlignedDimension
 13
1126.821476065602
 23
177.6263846381747
 33
0.0
 14
1126.821476065602
 24
169.6263846381747
 34
0.0
 50
90.0
100
AcDbRotatedDimension
1001
ACAD
1000
DSTYLE
1002
{
1070
   345
1005
5F5E
1070
   346
1005
5F5E
1070
   347
1005
5F5E
1002
}
  0
DIMENSION
  5
7B27
330
5F6E
100
AcDbEntity
  8
标注
100
AcDbDimension
  2
*D36
 10
1092.781865311911
 20
168.6263846381747
 30
0.0
 11
1092.781865311911
 21
173.1263846381749
 31
0.0
 70
    32
 71
     5
 42
9.0
  3
副本STANDARD
100
AcDbAlignedDimension
 13
1094.821540065595
 23
177.6263846381747
 33
0.0
 14
1094.821540065595
 24
168.6263846381747
 34
0.0
 50
90.0
100
AcDbRotatedDimension
1001
ACAD
1000
DSTYLE
1002
{
1070
   345
1005
5F5E
1070
   346
1005
5F5E
1070
   347
1005
5F5E
1002
}
  0
DIMENSION
  5
7B40
330
5F6E
100
AcDbEntity
  8
标注
100
AcDbDimension
  2
*D37
 10
1096.215238065624
 20
136.7760034167548
 30
0.0
 11
1096.833723683428
 21
137.9766254925394
 31
0.0
 70
   164
  1
5-<>
 71
     5
 42
0.3937000000005355
  3
副本STANDARD
100
AcDbRadialDimension
 15
1095.928155612157
 25
136.5065904346768
 35
0.0
 40
0.0
1001
ACAD
1000
DSTYLE
1002
{
1070
   288
1070
     1
1070
   345
1005
5F5E
1070
   346
1005
5F5E
1070
   347
1005
5F5E
1002
}
1001
ACAD_DSTYLE_DIMRADIAL_EXTENSION
1070
   387
1070
     1
1070
   388
1040
3.141592653589793
1070
   390
1040
4.712388980384689
  0
DIMENSION
  5
7B4A
330
5F6E
100
AcDbEntity
  8
标注
100
AcDbDimension
  2
*D38
 10
1115.215200065596
 20
136.7760034167547
 30
0.0
 11
1115.840729663195
 21
137.9969019678853
 31
0.0
 70
   164
  1
4-<>
 71
     5
 42
0.3937000000000807
  3
副本STANDARD
100
AcDbRadialDimension
 15
1114.933039704515
 25
136.5014397253555
 35
0.0
 40
0.0
1001
ACAD
1000
DSTYLE
1002
{
1070
   288
1070
     1
1070
   345
1005
5F5E
1070
   346
1005
5F5E
1070
   347
1005
5F5E
1002
}
1001
ACAD_DSTYLE_DIMRADIAL_EXTENSION
1070
   387
1070
     1
1070
   388
1040
3.141592653589793
1070
   390
1040
4.712388980384689
  0
ENDSEC
  0
SECTION
  2
OBJECTS
  0
DICTIONARY
  5
5F06
330
0
100
AcDbDictionary
281
     1
  3
ACAD_2007HEADERVARS_RT
350
7C2B
  3
ACAD_COLOR
350
5F64
  3
ACAD_GROUP
350
5F07
  3
ACAD_LAYOUT
350
5F63
  3
ACAD_MATERIAL
350
5F0A
  3
ACAD_MLEADERSTYLE
350
5F67
  3
ACAD_MLINESTYLE
350
5F60
  3
ACAD_PLOTSETTINGS
350
5F62
  3
ACAD_PLOTSTYLENAME
350
5F08
  3
ACAD_SCALELIST
350
5F34
  3
ACAD_TABLESTYLE
350
5F65
  3
ACAD_VISUALSTYLE
350
5F23
  3
ACDB_RECOMPOSE_DATA
350
7886
  3
AcDbVariableDictionary
350
6102
  3
DWGPROPS
350
7C2A
  3
lxx_dict
350
60F2
  0
DICTIONARY
  5
61B7
330
5EFC
100
AcDbDictionary
280
     1
281
     1
  3
ACAD_LAYERSTATES
360
61B8
  0
DICTIONARY
  5
60F4
330
5F56
100
AcDbDictionary
280
     1
281
     1
  3
ADSK_XREC_LAYER_RECONCILED
360
60F5
  0
DICTIONARY
  5
60F6
330
5F72
100
AcDbDictionary
280
     1
281
     1
  3
ADSK_XREC_LAYER_RECONCILED
360
60F7
  0
DICTIONARY
  5
60F8
330
5F7D
100
AcDbDictionary
280
     1
281
     1
  3
ADSK_XREC_LAYER_RECONCILED
360
60F9
  0
DICTIONARY
  5
60FA
330
5F7E
100
AcDbDictionary
280
     1
281
     1
  3
ADSK_XREC_LAYER_RECONCILED
360
60FB
  0
DICTIONARY
  5
654F
330
5F6E
100
AcDbDictionary
280
     1
281
     1
  3
ACAD_SORTENTS
360
6550
  0
DICTIONARY
  5
7C2B
102
{ACAD_REACTORS
330
5F06
102
}
330
5F06
100
AcDbDictionary
281
     1
  3
DIMLTEX1
350
7C2D
  3
DIMLTEX2
350
7C2E
  3
DIMLTYPE
350
7C2C
  0
DICTIONARY
  5
5F64
102
{ACAD_REACTORS
330
5F06
102
}
330
5F06
100
AcDbDictionary
281
     1
  0
DICTIONARY
  5
5F07
102
{ACAD_REACTORS
330
5F06
102
}
330
5F06
100
AcDbDictionary
281
     1
  0
DICTIONARY
  5
5F63
102
{ACAD_REACTORS
330
5F06
102
}
330
5F06
100
AcDbDictionary
281
     1
  3
Model
350
5F71
  3
布局1
350
5F6D
  0
DICTIONARY
  5
5F0A
102
{ACAD_REACTORS
330
5F06
102
}
330
5F06
100
AcDbDictionary
281
     1
  3
ByBlock
350
5F13
  3
ByLayer
350
5F0B
  3
Global
350
5F1B
  0
DICTIONARY
  5
5F67
102
{ACAD_REACTORS
330
5F06
102
}
330
5F06
100
AcDbDictionary
281
     1
  3
Standard
350
5F68
  0
DICTIONARY
  5
5F60
102
{ACAD_REACTORS
330
5F06
102
}
330
5F06
100
AcDbDictionary
281
     1
  3
Standard
350
5F61
  0
DICTIONARY
  5
5F62
102
{ACAD_REACTORS
330
5F06
102
}
330
5F06
100
AcDbDictionary
281
     1
  0
ACDBDICTIONARYWDFLT
  5
5F08
102
{ACAD_REACTORS
330
5F06
102
}
330
5F06
100
AcDbDictionary
281
     1
  3
Normal
350
5F09
100
AcDbDictionaryWithDefault
340
5F09
  0
DICTIONARY
  5
5F34
102
{ACAD_REACTORS
330
5F06
102
}
330
5F06
100
AcDbDictionary
281
     1
  3
A0
350
5F35
  3
A1
350
5F36
  3
A2
350
5F37
  3
A3
350
5F38
  3
A4
350
5F39
  3
A5
350
5F3A
  3
A6
350
5F3B
  3
A7
350
5F3C
  3
A8
350
5F3D
  3
A9
350
5F3E
  3
B0
350
5F3F
  3
B1
350
5F40
  3
B2
350
5F41
  3
B3
350
5F42
  3
B4
350
5F43
  3
B5
350
5F44
  3
B6
350
5F45
  3
B7
350
5F46
  3
B8
350
5F47
  3
B9
350
5F48
  3
C0
350
5F49
  3
C1
350
5F4A
  3
C2
350
5F4B
  3
C3
350
5F4C
  3
C4
350
5F4D
  3
C5
350
5F4E
  3
C6
350
5F4F
  3
C7
350
5F50
  3
C8
350
5F51
  3
C9
350
5F52
  3
D0
350
5F53
  3
D1
350
5F54
  3
D2
350
5F55
  0
DICTIONARY
  5
5F65
102
{ACAD_REACTORS
330
5F06
102
}
330
5F06
100
AcDbDictionary
281
     1
  3
Standard
350
5F66
  0
DICTIONARY
  5
5F23
102
{ACAD_REACTORS
330
5F06
102
}
330
5F06
100
AcDbDictionary
281
     1
  3
2dWireframe
350
5F29
  3
3D Hidden
350
5F2B
  3
3dWireframe
350
5F2A
  3
Basic
350
5F28
  3
Brighten
350
5F2F
  3
ColorChange
350
5F33
  3
Conceptual
350
5F2C
  3
Dim
350
5F2E
  3
Facepattern
350
5F32
  3
Flat
350
5F24
  3
FlatWithEdges
350
5F25
  3
Gouraud
350
5F26
  3
GouraudWithEdges
350
5F27
  3
Linepattern
350
5F31
  3
Realistic
350
5F2D
  3
Thicken
350
5F30
  0
XRECORD
  5
7886
102
{ACAD_REACTORS
330
5F06
102
}
330
5F06
100
AcDbXrecord
280
     1
 90
        1
330
5F66
  0
DICTIONARY
  5
6102
102
{ACAD_REACTORS
330
5F06
102
}
330
5F06
100
AcDbDictionary
281
     1
  3
CANNOSCALE
350
6105
  3
CMLEADERSTYLE
350
6104
  3
CTABLESTYLE
350
6103
  3
DIMASSOC
350
6108
  3
INDEXCTL
350
6107
  3
SORTENTS
350
6106
  0
XRECORD
  5
7C2A
102
{ACAD_REACTORS
330
5F06
102
}
330
5F06
100
AcDbXrecord
280
     1
  1
DWGPROPS COOKIE
  2

  3

  4

  6

  7

  8
Administrator
  9

300
=
301
=
302
=
303
=
304
=
305
=
306
=
307
=
308
=
309
=
 40
0.6640869675925926
 41
2455434.724808658
 42
2458564.573868403
  1

 90
        0
  0
DICTIONARY
  5
60F2
102
{ACAD_REACTORS
330
5F06
102
}
330
5F06
100
AcDbDictionary
281
     1
  3
lxx_dimth
350
60F3
  0
DICTIONARY
  5
61B8
102
{ACAD_REACTORS
330
61B7
102
}
330
61B7
100
AcDbDictionary
281
     1
  0
XRECORD
  5
60F5
102
{ACAD_REACTORS
330
60F4
102
}
330
60F4
100
AcDbXrecord
280
     1
290
     1
  0
XRECORD
  5
60F7
102
{ACAD_REACTORS
330
60F6
102
}
330
60F6
100
AcDbXrecord
280
     1
290
     1
  0
XRECORD
  5
60F9
102
{ACAD_REACTORS
330
60F8
102
}
330
60F8
100
AcDbXrecord
280
     1
290
     1
  0
XRECORD
  5
60FB
102
{ACAD_REACTORS
330
60FA
102
}
330
60FA
100
AcDbXrecord
280
     1
290
     1
  0
SORTENTSTABLE
  5
6550
102
{ACAD_REACTORS
330
654F
102
}
330
654F
100
AcDbSortentsTable
330
5F6E
331
7978
  5
7978
331
79E9
  5
79EA
331
7A39
  5
79F3
331
7994
  5
7994
331
79B6
  5
79B6
331
7967
  5
7967
331
79D8
  5
79D8
331
7989
  5
7989
331
79A5
  5
79A5
331
7956
  5
7956
331
79C7
  5
79C7
331
7992
  5
7992
331
79B4
  5
79B4
331
7965
  5
7965
331
79D6
  5
79D6
331
7987
  5
7987
331
79A3
  5
79A3
331
7954
  5
7954
331
79C5
  5
79C5
331
7976
  5
7976
331
79E7
  5
79E8
331
7990
  5
7990
331
79B2
  5
79B2
331
7963
  5
7963
331
79D4
  5
79D4
331
7985
  5
7985
331
79A1
  5
79A1
331
7952
  5
7952
331
79C3
  5
79C3
331
7974
  5
7974
331
79E5
  5
79E5
331
79B0
  5
79B0
331
7961
  5
7961
331
79D2
  5
79D2
331
7983
  5
7983
331
79F4
  5
7A01
331
799F
  5
799F
331
7950
  5
7950
331
79C1
  5
79C1
331
7972
  5
7972
331
79E3
  5
79E3
331
79AE
  5
79AE
331
795F
  5
795F
331
79D0
  5
79D0
331
7981
  5
7981
331
79F2
  5
79F4
331
799D
  5
799D
331
794E
  5
794E
331
79BF
  5
79BF
331
7970
  5
7970
331
79E1
  5
79E1
331
79AC
  5
79AC
331
795D
  5
795D
331
79CE
  5
79CE
331
797F
  5
797F
331
79F0
  5
79F1
331
7A0F
  5
7A2B
331
799B
  5
799B
331
79BD
  5
79BD
331
796E
  5
796E
331
79DF
  5
79DF
331
79AA
  5
79AA
331
795B
  5
795B
331
79CC
  5
79CC
331
797D
  5
797D
331
79EE
  5
79EF
331
7999
  5
7999
331
79BB
  5
79BB
331
796C
  5
796C
331
79DD
  5
79DD
331
798E
  5
798E
331
79A8
  5
79A8
331
7959
  5
7959
331
79CA
  5
79CA
331
797B
  5
797B
331
79EC
  5
79ED
331
7997
  5
7997
331
79B9
  5
79B9
331
796A
  5
796A
331
79DB
  5
79DB
331
798C
  5
798C
331
79C8
  5
79C8
331
7979
  5
7979
331
79EA
  5
79EB
331
7A2B
  5
7A3A
331
7A3A
  5
79E7
331
7995
  5
7995
331
79B7
  5
79B7
331
7968
  5
7968
331
79D9
  5
79D9
331
798A
  5
798A
331
79A6
  5
79A6
331
7957
  5
7957
331
79E8
  5
79E9
331
7993
  5
7993
331
79B5
  5
79B5
331
7966
  5
7966
331
79D7
  5
79D7
331
7988
  5
7988
331
79A4
  5
79A4
331
7955
  5
7955
331
79C6
  5
79C6
331
7977
  5
7977
331
7991
  5
7991
331
79B3
  5
79B3
331
7964
  5
7964
331
79D5
  5
79D5
331
7986
  5
7986
331
79A2
  5
79A2
331
7953
  5
7953
331
79C4
  5
79C4
331
7975
  5
7975
331
79E6
  5
79E6
331
79B1
  5
79B1
331
7962
  5
7962
331
79D3
  5
79D3
331
7984
  5
7984
331
79F5
  5
7A0F
331
79A0
  5
79A0
331
7951
  5
7951
331
79C2
  5
79C2
331
7973
  5
7973
331
79E4
  5
79E4
331
7A01
  5
7A1D
331
79AF
  5
79AF
331
7960
  5
7960
331
79D1
  5
79D1
331
7982
  5
7982
331
79F3
  5
79F5
331
799E
  5
799E
331
794F
  5
794F
331
79C0
  5
79C0
331
7971
  5
7971
331
79E2
  5
79E2
331
79AD
  5
79AD
331
795E
  5
795E
331
79CF
  5
79CF
331
7980
  5
7980
331
79F1
  5
79F2
331
799C
  5
799C
331
794D
  5
794D
331
79BE
  5
79BE
331
796F
  5
796F
331
79E0
  5
79E0
331
79AB
  5
79AB
331
795C
  5
795C
331
79CD
  5
79CD
331
797E
  5
797E
331
79EF
  5
79F0
331
799A
  5
799A
331
79BC
  5
79BC
331
796D
  5
796D
331
79DE
  5
79DE
331
798F
  5
798F
331
79A9
  5
79A9
331
795A
  5
795A
331
79CB
  5
79CB
331
797C
  5
797C
331
79ED
  5
79EE
331
7998
  5
7998
331
79BA
  5
79BA
331
796B
  5
796B
331
79DC
  5
79DC
331
798D
  5
798D
331
7A1D
  5
7A39
331
7958
  5
7958
331
79C9
  5
79C9
331
797A
  5
797A
331
79EB
  5
79EC
331
7996
  5
7996
331
79B8
  5
79B8
331
7969
  5
7969
331
79DA
  5
79DA
331
798B
  5
798B
331
79A7
  5
79A7
  0
XRECORD
  5
7C2D
102
{ACAD_REACTORS
330
7C2B
102
}
330
7C2B
100
AcDbXrecord
280
     1
340
5F5E
  0
XRECORD
  5
7C2E
102
{ACAD_REACTORS
330
7C2B
102
}
330
7C2B
100
AcDbXrecord
280
     1
340
5F5E
  0
XRECORD
  5
7C2C
102
{ACAD_REACTORS
330
7C2B
102
}
330
7C2B
100
AcDbXrecord
280
     1
340
5F5E
  0
LAYOUT
  5
5F71
102
{ACAD_XDICTIONARY
360
7C32
102
}
102
{ACAD_REACTORS
330
5F63
102
}
330
5F63
100
AcDbPlotSettings
  1

  2
\\192.168.1.64\Canon LBP2900
  4

  6

 40
0.0
 41
0.0
 42
0.0
 43
0.0
 44
0.0
 45
0.0
 46
0.0
 47
0.0
 48
0.0
 49
0.0
140
0.0
141
0.0
142
1.0
143
1.0
 70
  1712
 72
     0
 73
     0
 74
     0
  7

 75
     0
147
1.0
148
0.0
149
0.0
100
AcDbLayout
  1
Model
 70
     1
 71
     0
 10
0.0
 20
0.0
 11
12.0
 21
9.0
 12
0.0
 22
0.0
 32
0.0
 14
0.0
 24
0.0
 34
0.0
 15
0.0
 25
0.0
 35
0.0
146
0.0
 13
0.0
 23
0.0
 33
0.0
 16
1.0
 26
0.0
 36
0.0
 17
0.0
 27
1.0
 37
0.0
 76
     0
330
5F6E
331
5F73
  0
LAYOUT
  5
5F6D
102
{ACAD_XDICTIONARY
360
7C30
102
}
102
{ACAD_REACTORS
330
5F63
102
}
330
5F63
100
AcDbPlotSettings
  1

  2
\\192.168.1.64\Canon LBP2900
  4

  6

 40
0.0
 41
0.0
 42
0.0
 43
0.0
 44
0.0
 45
0.0
 46
0.0
 47
0.0
 48
0.0
 49
0.0
140
0.0
141
0.0
142
1.0
143
1.0
 70
   688
 72
     0
 73
     0
 74
     5
  7

 75
    16
147
1.0
148
0.0
149
0.0
100
AcDbLayout
  1
布局1
 70
     1
 71
     1
 10
0.0
 20
0.0
 11
12.0
 21
9.0
 12
0.0
 22
0.0
 32
0.0
 14
1.000000000000000E+20
 24
1.000000000000000E+20
 34
1.000000000000000E+20
 15
-1.000000000000000E+20
 25
-1.000000000000000E+20
 35
-1.000000000000000E+20
146
0.0
 13
0.0
 23
0.0
 33
0.0
 16
1.0
 26
0.0
 36
0.0
 17
0.0
 27
1.0
 37
0.0
 76
     0
330
5F6A
  0
MATERIAL
  5
5F13
102
{ACAD_XDICTIONARY
360
5F14
102
}
102
{ACAD_REACTORS
330
5F0A
102
}
330
5F0A
100
AcDbMaterial
  1
ByBlock
 72
     0
 43
0.0208333333333333
 43
0.0
 43
0.0
 43
0.0
 43
0.0
 43
0.0208333333333333
 43
0.0
 43
0.0
 43
0.0
 43
0.0
 43
1.0
 43
0.0
 43
0.0
 43
0.0
 43
0.0
 43
1.0
 77
     0
 47
0.0208333333333333
 47
0.0
 47
0.0
 47
0.0
 47
0.0
 47
0.0208333333333333
 47
0.0
 47
0.0
 47
0.0
 47
0.0
 47
1.0
 47
0.0
 47
0.0
 47
0.0
 47
0.0
 47
1.0
171
     0
 49
0.0208333333333333
 49
0.0
 49
0.0
 49
0.0
 49
0.0
 49
0.0208333333333333
 49
0.0
 49
0.0
 49
0.0
 49
0.0
 49
1.0
 49
0.0
 49
0.0
 49
0.0
 49
0.0
 49
1.0
175
     0
142
0.0208333333333333
142
0.0
142
0.0
142
0.0
142
0.0
142
0.0208333333333333
142
0.0
142
0.0
142
0.0
142
0.0
142
1.0
142
0.0
142
0.0
142
0.0
142
0.0
142
1.0
179
     0
144
0.0208333333333333
144
0.0
144
0.0
144
0.0
144
0.0
144
0.0208333333333333
144
0.0
144
0.0
144
0.0
144
0.0
144
1.0
144
0.0
144
0.0
144
0.0
144
0.0
144
1.0
147
0.0208333333333333
147
0.0
147
0.0
147
0.0
147
0.0
147
0.0208333333333333
147
0.0
147
0.0
147
0.0
147
0.0
147
1.0
147
0.0
147
0.0
147
0.0
147
0.0
147
1.0
  0
MATERIAL
  5
5F0B
102
{ACAD_XDICTIONARY
360
5F0C
102
}
102
{ACAD_REACTORS
330
5F0A
102
}
330
5F0A
100
AcDbMaterial
  1
ByLayer
 72
     0
 43
0.0208333333333333
 43
0.0
 43
0.0
 43
0.0
 43
0.0
 43
0.0208333333333333
 43
0.0
 43
0.0
 43
0.0
 43
0.0
 43
1.0
 43
0.0
 43
0.0
 43
0.0
 43
0.0
 43
1.0
 77
     0
 47
0.0208333333333333
 47
0.0
 47
0.0
 47
0.0
 47
0.0
 47
0.0208333333333333
 47
0.0
 47
0.0
 47
0.0
 47
0.0
 47
1.0
 47
0.0
 47
0.0
 47
0.0
 47
0.0
 47
1.0
171
     0
 49
0.0208333333333333
 49
0.0
 49
0.0
 49
0.0
 49
0.0
 49
0.0208333333333333
 49
0.0
 49
0.0
 49
0.0
 49
0.0
 49
1.0
 49
0.0
 49
0.0
 49
0.0
 49
0.0
 49
1.0
175
     0
142
0.0208333333333333
142
0.0
142
0.0
142
0.0
142
0.0
142
0.0208333333333333
142
0.0
142
0.0
142
0.0
142
0.0
142
1.0
142
0.0
142
0.0
142
0.0
142
0.0
142
1.0
179
     0
144
0.0208333333333333
144
0.0
144
0.0
144
0.0
144
0.0
144
0.0208333333333333
144
0.0
144
0.0
144
0.0
144
0.0
144
1.0
144
0.0
144
0.0
144
0.0
144
0.0
144
1.0
147
0.0208333333333333
147
0.0
147
0.0
147
0.0
147
0.0
147
0.0208333333333333
147
0.0
147
0.0
147
0.0
147
0.0
147
1.0
147
0.0
147
0.0
147
0.0
147
0.0
147
1.0
  0
MATERIAL
  5
5F1B
102
{ACAD_XDICTIONARY
360
5F1C
102
}
102
{ACAD_REACTORS
330
5F0A
102
}
330
5F0A
100
AcDbMaterial
  1
Global
 72
     0
 43
0.0208333333333333
 43
0.0
 43
0.0
 43
0.0
 43
0.0
 43
0.0208333333333333
 43
0.0
 43
0.0
 43
0.0
 43
0.0
 43
1.0
 43
0.0
 43
0.0
 43
0.0
 43
0.0
 43
1.0
 77
     0
 47
0.0208333333333333
 47
0.0
 47
0.0
 47
0.0
 47
0.0
 47
0.0208333333333333
 47
0.0
 47
0.0
 47
0.0
 47
0.0
 47
1.0
 47
0.0
 47
0.0
 47
0.0
 47
0.0
 47
1.0
171
     0
 49
0.0208333333333333
 49
0.0
 49
0.0
 49
0.0
 49
0.0
 49
0.0208333333333333
 49
0.0
 49
0.0
 49
0.0
 49
0.0
 49
1.0
 49
0.0
 49
0.0
 49
0.0
 49
0.0
 49
1.0
175
     0
142
0.0208333333333333
142
0.0
142
0.0
142
0.0
142
0.0
142
0.0208333333333333
142
0.0
142
0.0
142
0.0
142
0.0
142
1.0
142
0.0
142
0.0
142
0.0
142
0.0
142
1.0
179
     0
144
0.0208333333333333
144
0.0
144
0.0
144
0.0
144
0.0
144
0.0208333333333333
144
0.0
144
0.0
144
0.0
144
0.0
144
1.0
144
0.0
144
0.0
144
0.0
144
0.0
144
1.0
147
0.0208333333333333
147
0.0
147
0.0
147
0.0
147
0.0
147
0.0208333333333333
147
0.0
147
0.0
147
0.0
147
0.0
147
1.0
147
0.0
147
0.0
147
0.0
147
0.0
147
1.0
  0
MLEADERSTYLE
  5
5F68
102
{ACAD_REACTORS
330
5F67
102
}
330
5F67
100
AcDbMLeaderStyle
170
     2
171
     1
172
     0
 90
        2
 40
0.0
 41
0.0
173
     1
 91
-1056964608
340
5F5C
 92
       -2
290
     1
 42
0.09
291
     1
 43
0.36
  3
Standard
 44
0.18
300

342
5F57
174
     1
178
     6
175
     1
176
     0
 93
-1056964608
 45
0.18
292
     0
297
     0
 46
0.18
 94
-1056964608
 47
1.0
 49
1.0
140
1.0
293
     1
141
0.0
294
     1
177
     0
142
1.0
295
     0
296
     0
143
0.125
1001
ACAD_MLEADERVER
1070
     2
  0
MLINESTYLE
  5
5F61
102
{ACAD_REACTORS
330
5F60
102
}
330
5F60
100
AcDbMlineStyle
  2
STANDARD
 70
     0
  3

 62
   256
 51
90.0
 52
90.0
 71
     2
 49
0.5
 62
   256
  6
BYLAYER
 49
-0.5
 62
   256
  6
BYLAYER
  0
ACDBPLACEHOLDER
  5
5F09
102
{ACAD_REACTORS
330
5F08
102
}
330
5F08
  0
SCALE
  5
5F35
102
{ACAD_REACTORS
330
5F34
102
}
330
5F34
100
AcDbScale
 70
     0
300
1:1
140
1.0
141
1.0
290
     1
  0
SCALE
  5
5F36
102
{ACAD_REACTORS
330
5F34
102
}
330
5F34
100
AcDbScale
 70
     0
300
1:2
140
1.0
141
2.0
290
     0
  0
SCALE
  5
5F37
102
{ACAD_REACTORS
330
5F34
102
}
330
5F34
100
AcDbScale
 70
     0
300
1:4
140
1.0
141
4.0
290
     0
  0
SCALE
  5
5F38
102
{ACAD_REACTORS
330
5F34
102
}
330
5F34
100
AcDbScale
 70
     0
300
1:5
140
1.0
141
5.0
290
     0
  0
SCALE
  5
5F39
102
{ACAD_REACTORS
330
5F34
102
}
330
5F34
100
AcDbScale
 70
     0
300
1:8
140
1.0
141
8.0
290
     0
  0
SCALE
  5
5F3A
102
{ACAD_REACTORS
330
5F34
102
}
330
5F34
100
AcDbScale
 70
     0
300
1:10
140
1.0
141
10.0
290
     0
  0
SCALE
  5
5F3B
102
{ACAD_REACTORS
330
5F34
102
}
330
5F34
100
AcDbScale
 70
     0
300
1:16
140
1.0
141
16.0
290
     0
  0
SCALE
  5
5F3C
102
{ACAD_REACTORS
330
5F34
102
}
330
5F34
100
AcDbScale
 70
     0
300
1:20
140
1.0
141
20.0
290
     0
  0
SCALE
  5
5F3D
102
{ACAD_REACTORS
330
5F34
102
}
330
5F34
100
AcDbScale
 70
     0
300
1:30
140
1.0
141
30.0
290
     0
  0
SCALE
  5
5F3E
102
{ACAD_REACTORS
330
5F34
102
}
330
5F34
100
AcDbScale
 70
     0
300
1:40
140
1.0
141
40.0
290
     0
  0
SCALE
  5
5F3F
102
{ACAD_REACTORS
330
5F34
102
}
330
5F34
100
AcDbScale
 70
     0
300
1:50
140
1.0
141
50.0
290
     0
  0
SCALE
  5
5F40
102
{ACAD_REACTORS
330
5F34
102
}
330
5F34
100
AcDbScale
 70
     0
300
1:100
140
1.0
141
100.0
290
     0
  0
SCALE
  5
5F41
102
{ACAD_REACTORS
330
5F34
102
}
330
5F34
100
AcDbScale
 70
     0
300
2:1
140
2.0
141
1.0
290
     0
  0
SCALE
  5
5F42
102
{ACAD_REACTORS
330
5F34
102
}
330
5F34
100
AcDbScale
 70
     0
300
4:1
140
4.0
141
1.0
290
     0
  0
SCALE
  5
5F43
102
{ACAD_REACTORS
330
5F34
102
}
330
5F34
100
AcDbScale
 70
     0
300
8:1
140
8.0
141
1.0
290
     0
  0
SCALE
  5
5F44
102
{ACAD_REACTORS
330
5F34
102
}
330
5F34
100
AcDbScale
 70
     0
300
10:1
140
10.0
141
1.0
290
     0
  0
SCALE
  5
5F45
102
{ACAD_REACTORS
330
5F34
102
}
330
5F34
100
AcDbScale
 70
     0
300
100:1
140
100.0
141
1.0
290
     0
  0
SCALE
  5
5F46
102
{ACAD_REACTORS
330
5F34
102
}
330
5F34
100
AcDbScale
 70
     0
300
1/128" = 1'-0"
140
0.0078125
141
12.0
290
     0
  0
SCALE
  5
5F47
102
{ACAD_REACTORS
330
5F34
102
}
330
5F34
100
AcDbScale
 70
     0
300
1/64" = 1'-0"
140
0.015625
141
12.0
290
     0
  0
SCALE
  5
5F48
102
{ACAD_REACTORS
330
5F34
102
}
330
5F34
100
AcDbScale
 70
     0
300
1/32" = 1'-0"
140
0.03125
141
12.0
290
     0
  0
SCALE
  5
5F49
102
{ACAD_REACTORS
330
5F34
102
}
330
5F34
100
AcDbScale
 70
     0
300
1/16" = 1'-0"
140
0.0625
141
12.0
290
     0
  0
SCALE
  5
5F4A
102
{ACAD_REACTORS
330
5F34
102
}
330
5F34
100
AcDbScale
 70
     0
300
3/32" = 1'-0"
140
0.09375
141
12.0
290
     0
  0
SCALE
  5
5F4B
102
{ACAD_REACTORS
330
5F34
102
}
330
5F34
100
AcDbScale
 70
     0
300
1/8" = 1'-0"
140
0.125
141
12.0
290
     0
  0
SCALE
  5
5F4C
102
{ACAD_REACTORS
330
5F34
102
}
330
5F34
100
AcDbScale
 70
     0
300
3/16" = 1'-0"
140
0.1875
141
12.0
290
     0
  0
SCALE
  5
5F4D
102
{ACAD_REACTORS
330
5F34
102
}
330
5F34
100
AcDbScale
 70
     0
300
1/4" = 1'-0"
140
0.25
141
12.0
290
     0
  0
SCALE
  5
5F4E
102
{ACAD_REACTORS
330
5F34
102
}
330
5F34
100
AcDbScale
 70
     0
300
3/8" = 1'-0"
140
0.375
141
12.0
290
     0
  0
SCALE
  5
5F4F
102
{ACAD_REACTORS
330
5F34
102
}
330
5F34
100
AcDbScale
 70
     0
300
1/2" = 1'-0"
140
0.5
141
12.0
290
     0
  0
SCALE
  5
5F50
102
{ACAD_REACTORS
330
5F34
102
}
330
5F34
100
AcDbScale
 70
     0
300
3/4" = 1'-0"
140
0.75
141
12.0
290
     0
  0
SCALE
  5
5F51
102
{ACAD_REACTORS
330
5F34
102
}
330
5F34
100
AcDbScale
 70
     0
300
1" = 1'-0"
140
1.0
141
12.0
290
     0
  0
SCALE
  5
5F52
102
{ACAD_REACTORS
330
5F34
102
}
330
5F34
100
AcDbScale
 70
     0
300
1-1/2" = 1'-0"
140
1.5
141
12.0
290
     0
  0
SCALE
  5
5F53
102
{ACAD_REACTORS
330
5F34
102
}
330
5F34
100
AcDbScale
 70
     0
300
3" = 1'-0"
140
3.0
141
12.0
290
     0
  0
SCALE
  5
5F54
102
{ACAD_REACTORS
330
5F34
102
}
330
5F34
100
AcDbScale
 70
     0
300
6" = 1'-0"
140
6.0
141
12.0
290
     0
  0
SCALE
  5
5F55
102
{ACAD_REACTORS
330
5F34
102
}
330
5F34
100
AcDbScale
 70
     0
300
1'-0" = 1'-0"
140
12.0
141
12.0
290
     0
  0
TABLESTYLE
  5
5F66
102
{ACAD_XDICTIONARY
360
7884
102
}
102
{ACAD_REACTORS
330
5F65
102
}
330
5F65
100
AcDbTableStyle
  3
Standard
 70
     0
 71
     0
 40
0.06
 41
0.06
280
     0
281
     0
  7
STANDARD
140
0.18
170
     2
 62
     0
 63
     7
283
     0
274
    -2
284
     1
 64
     0
275
    -2
285
     1
 65
     0
276
    -2
286
     1
 66
     0
277
    -2
287
     1
 67
     0
278
    -2
288
     1
 68
     0
279
    -2
289
     1
 69
     0
  7
STANDARD
140
0.25
170
     5
 62
     0
 63
     7
283
     0
274
    -2
284
     1
 64
     0
275
    -2
285
     1
 65
     0
276
    -2
286
     1
 66
     0
277
    -2
287
     1
 67
     0
278
    -2
288
     1
 68
     0
279
    -2
289
     1
 69
     0
  7
STANDARD
140
0.18
170
     5
 62
     0
 63
     7
283
     0
274
    -2
284
     1
 64
     0
275
    -2
285
     1
 65
     0
276
    -2
286
     1
 66
     0
277
    -2
287
     1
 67
     0
278
    -2
288
     1
 68
     0
279
    -2
289
     1
 69
     0
  0
VISUALSTYLE
  5
5F29
102
{ACAD_REACTORS
330
5F23
102
}
330
5F23
100
AcDbVisualStyle
  2
2dWireframe
 70
     4
 71
     0
 72
     2
 73
     0
 90
        0
 40
-0.6
 41
-30.0
 62
     5
 63
     7
 74
     1
 91
        4
 64
     7
 65
   257
 75
     1
175
     1
 42
1.0
 92
        0
 66
   257
 43
1.0
 76
     1
 77
     6
 78
     2
 67
     7
 79
     5
170
     0
171
     0
290
     0
174
     0
 93
        1
 44
0.0
173
     0
291
     0
 45
0.0
1001
ACAD
1000
AcDbSavedByObjectVersion
1070
     0
1000
AcDbSavedByObjectVersion
1070
     0
  0
VISUALSTYLE
  5
5F2B
102
{ACAD_REACTORS
330
5F23
102
}
330
5F23
100
AcDbVisualStyle
  2
3D Hidden
 70
     6
 71
     1
 72
     2
 73
     2
 90
        0
 40
-0.6
 41
-30.0
 62
     5
 63
     7
 74
     2
 91
        2
 64
     7
 65
   257
 75
     2
175
     1
 42
40.0
 92
        0
 66
   257
 43
1.0
 76
     1
 77
     6
 78
     2
 67
     7
 79
     3
170
     0
171
     0
290
     0
174
     0
 93
        1
 44
0.0
173
     0
291
     0
 45
0.0
1001
ACAD
1000
AcDbSavedByObjectVersion
1070
     0
1000
AcDbSavedByObjectVersion
1070
     0
  0
VISUALSTYLE
  5
5F2A
102
{ACAD_REACTORS
330
5F23
102
}
330
5F23
100
AcDbVisualStyle
  2
3dWireframe
 70
     5
 71
     0
 72
     2
 73
     0
 90
        0
 40
-0.6
 41
-30.0
 62
     5
 63
     7
 74
     1
 91
        4
 64
     7
 65
   257
 75
     1
175
     1
 42
1.0
 92
        0
 66
   257
 43
1.0
 76
     1
 77
     6
 78
     2
 67
     7
 79
     5
170
     0
171
     0
290
     0
174
     0
 93
        1
 44
0.0
173
     0
291
     0
 45
0.0
1001
ACAD
1000
AcDbSavedByObjectVersion
1070
     0
1000
AcDbSavedByObjectVersion
1070
     0
  0
VISUALSTYLE
  5
5F28
102
{ACAD_REACTORS
330
5F23
102
}
330
5F23
100
AcDbVisualStyle
  2
Basic
 70
     7
 71
     1
 72
     0
 73
     1
 90
        0
 40
-0.6
 41
-30.0
 62
     5
 63
     7
 74
     0
 91
        4
 64
     7
 65
   257
 75
     1
175
     1
 42
1.0
 92
        8
 66
     7
 43
1.0
 76
     1
 77
     6
 78
     2
 67
     7
 79
     5
170
     0
171
     0
290
     0
174
     0
 93
        1
 44
0.0
173
     0
291
     1
 45
0.0
1001
ACAD
1000
AcDbSavedByObjectVersion
1070
     0
1000
AcDbSavedByObjectVersion
1070
     0
  0
VISUALSTYLE
  5
5F2F
102
{ACAD_REACTORS
330
5F23
102
}
330
5F23
100
AcDbVisualStyle
  2
Brighten
 70
    12
 71
     2
 72
     2
 73
     0
 90
        0
 40
-0.6
 41
-30.0
 62
     5
 63
     7
 74
     1
 91
        4
 64
     7
 65
   257
 75
     1
175
     1
 42
1.0
 92
        8
 66
     7
 43
1.0
 76
     1
 77
     6
 78
     2
 67
     7
 79
     5
170
     0
171
     0
290
     0
174
     0
 93
        1
 44
50.0
173
     0
291
     1
 45
0.0
1001
ACAD
1000
AcDbSavedByObjectVersion
1070
     0
1000
AcDbSavedByObjectVersion
1070
     0
  0
VISUALSTYLE
  5
5F33
102
{ACAD_REACTORS
330
5F23
102
}
330
5F23
100
AcDbVisualStyle
  2
ColorChange
 70
    16
 71
     2
 72
     2
 73
     3
 90
        0
 40
-0.6
 41
-30.0
 62
     5
 63
     8
 74
     1
 91
        4
 64
     7
 65
   257
 75
     1
175
     1
 42
1.0
 92
        8
 66
     8
 43
1.0
 76
     1
 77
     6
 78
     2
 67
     7
 79
     5
170
     0
171
     0
290
     0
174
     0
 93
        1
 44
0.0
173
     0
291
     1
 45
0.0
1001
ACAD
1000
AcDbSavedByObjectVersion
1070
     0
1000
AcDbSavedByObjectVersion
1070
     0
  0
VISUALSTYLE
  5
5F2C
102
{ACAD_REACTORS
330
5F23
102
}
330
5F23
100
AcDbVisualStyle
  2
Conceptual
 70
     9
 71
     3
 72
     2
 73
     0
 90
        0
 40
-0.6
 41
-30.0
 62
     5
 63
     7
 74
     2
 91
        2
 64
     7
 65
   257
 75
     1
175
     1
 42
40.0
 92
        8
 66
     7
 43
1.0
 76
     1
 77
     6
 78
     2
 67
     7
 79
     3
170
     0
171
     0
290
     0
174
     0
 93
        1
 44
0.0
173
     0
291
     0
 45
0.0
1001
ACAD
1000
AcDbSavedByObjectVersion
1070
     0
1000
AcDbSavedByObjectVersion
1070
     0
  0
VISUALSTYLE
  5
5F2E
102
{ACAD_REACTORS
330
5F23
102
}
330
5F23
100
AcDbVisualStyle
  2
Dim
 70
    11
 71
     2
 72
     2
 73
     0
 90
        0
 40
-0.6
 41
-30.0
 62
     5
 63
     7
 74
     1
 91
        4
 64
     7
 65
   257
 75
     1
175
     1
 42
1.0
 92
        8
 66
     7
 43
1.0
 76
     1
 77
     6
 78
     2
 67
     7
 79
     5
170
     0
171
     0
290
     0
174
     0
 93
        1
 44
-50.0
173
     0
291
     1
 45
0.0
1001
ACAD
1000
AcDbSavedByObjectVersion
1070
     0
1000
AcDbSavedByObjectVersion
1070
     0
  0
VISUALSTYLE
  5
5F32
102
{ACAD_REACTORS
330
5F23
102
}
330
5F23
100
AcDbVisualStyle
  2
Facepattern
 70
    15
 71
     2
 72
     2
 73
     0
 90
        0
 40
-0.6
 41
-30.0
 62
     5
 63
     7
 74
     1
 91
        4
 64
     7
 65
   257
 75
     1
175
     1
 42
1.0
 92
        8
 66
     7
 43
1.0
 76
     1
 77
     6
 78
     2
 67
     7
 79
     5
170
     0
171
     0
290
     0
174
     0
 93
        1
 44
0.0
173
     0
291
     1
 45
0.0
1001
ACAD
1000
AcDbSavedByObjectVersion
1070
     0
1000
AcDbSavedByObjectVersion
1070
     0
  0
VISUALSTYLE
  5
5F24
102
{ACAD_REACTORS
330
5F23
102
}
330
5F23
100
AcDbVisualStyle
  2
Flat
 70
     0
 71
     2
 72
     1
 73
     1
 90
        2
 40
-0.6
 41
30.0
 62
     5
 63
     7
 74
     0
 91
        4
 64
     7
 65
   257
 75
     1
175
     1
 42
1.0
 92
        8
 66
     7
 43
1.0
 76
     1
 77
     6
 78
     2
 67
     7
 79
     5
170
     0
171
     0
290
     0
174
     0
 93
       13
 44
0.0
173
     0
291
     1
 45
0.0
1001
ACAD
1000
AcDbSavedByObjectVersion
1070
     0
1000
AcDbSavedByObjectVersion
1070
     0
  0
VISUALSTYLE
  5
5F25
102
{ACAD_REACTORS
330
5F23
102
}
330
5F23
100
AcDbVisualStyle
  2
FlatWithEdges
 70
     1
 71
     2
 72
     1
 73
     1
 90
        2
 40
-0.6
 41
30.0
 62
     5
 63
     7
 74
     1
 91
        4
 64
     7
 65
   257
 75
     1
175
     1
 42
1.0
 92
        0
 66
   257
 43
1.0
 76
     1
 77
     6
 78
     2
 67
     7
 79
     5
170
     0
171
     0
290
     0
174
     0
 93
       13
 44
0.0
173
     0
291
     1
 45
0.0
1001
ACAD
1000
AcDbSavedByObjectVersion
1070
     0
1000
AcDbSavedByObjectVersion
1070
     0
  0
VISUALSTYLE
  5
5F26
102
{ACAD_REACTORS
330
5F23
102
}
330
5F23
100
AcDbVisualStyle
  2
Gouraud
 70
     2
 71
     2
 72
     2
 73
     1
 90
        2
 40
-0.6
 41
30.0
 62
     5
 63
     7
 74
     0
 91
        4
 64
     7
 65
   257
 75
     1
175
     1
 42
1.0
 92
        0
 66
     7
 43
1.0
 76
     1
 77
     6
 78
     2
 67
     7
 79
     5
170
     0
171
     0
290
     0
174
     0
 93
       13
 44
0.0
173
     0
291
     1
 45
0.0
1001
ACAD
1000
AcDbSavedByObjectVersion
1070
     0
1000
AcDbSavedByObjectVersion
1070
     0
  0
VISUALSTYLE
  5
5F27
102
{ACAD_REACTORS
330
5F23
102
}
330
5F23
100
AcDbVisualStyle
  2
GouraudWithEdges
 70
     3
 71
     2
 72
     2
 73
     1
 90
        2
 40
-0.6
 41
30.0
 62
     5
 63
     7
 74
     1
 91
        4
 64
     7
 65
   257
 75
     1
175
     1
 42
1.0
 92
        0
 66
   257
 43
1.0
 76
     1
 77
     6
 78
     2
 67
     7
 79
     5
170
     0
171
     0
290
     0
174
     0
 93
       13
 44
0.0
173
     0
291
     1
 45
0.0
1001
ACAD
1000
AcDbSavedByObjectVersion
1070
     0
1000
AcDbSavedByObjectVersion
1070
     0
  0
VISUALSTYLE
  5
5F31
102
{ACAD_REACTORS
330
5F23
102
}
330
5F23
100
AcDbVisualStyle
  2
Linepattern
 70
    14
 71
     2
 72
     2
 73
     0
 90
        0
 40
-0.6
 41
-30.0
 62
     5
 63
     7
 74
     1
 91
        4
 64
     7
 65
   257
 75
     7
175
     7
 42
1.0
 92
        8
 66
     7
 43
1.0
 76
     1
 77
     6
 78
     2
 67
     7
 79
     5
170
     0
171
     0
290
     0
174
     0
 93
        1
 44
0.0
173
     0
291
     1
 45
0.0
1001
ACAD
1000
AcDbSavedByObjectVersion
1070
     0
1000
AcDbSavedByObjectVersion
1070
     0
  0
VISUALSTYLE
  5
5F2D
102
{ACAD_REACTORS
330
5F23
102
}
330
5F23
100
AcDbVisualStyle
  2
Realistic
 70
     8
 71
     2
 72
     2
 73
     0
 90
        0
 40
-0.6
 41
-30.0
 62
     5
 63
     7
 74
     1
 91
        0
 64
     7
 65
   257
 75
     1
175
     1
 42
1.0
 92
        8
 66
     8
 43
1.0
 76
     1
 77
     6
 78
     2
 67
     7
 79
     5
170
     0
171
     0
290
     0
174
     0
 93
       13
 44
0.0
173
     0
291
     0
 45
0.0
1001
ACAD
1000
AcDbSavedByObjectVersion
1070
     0
1000
AcDbSavedByObjectVersion
1070
     0
  0
VISUALSTYLE
  5
5F30
102
{ACAD_REACTORS
330
5F23
102
}
330
5F23
100
AcDbVisualStyle
  2
Thicken
 70
    13
 71
     2
 72
     2
 73
     0
 90
        0
 40
-0.6
 41
-30.0
 62
     5
 63
     7
 74
     1
 91
        4
 64
     7
 65
   257
 75
     1
175
     1
 42
1.0
 92
       12
 66
     7
 43
1.0
 76
     1
 77
     6
 78
     2
 67
     7
 79
     5
170
     0
171
     0
290
     0
174
     0
 93
        1
 44
0.0
173
     0
291
     1
 45
0.0
1001
ACAD
1000
AcDbSavedByObjectVersion
1070
     0
1000
AcDbSavedByObjectVersion
1070
     0
  0
DICTIONARYVAR
  5
6105
102
{ACAD_REACTORS
330
6102
102
}
330
6102
100
DictionaryVariables
280
     0
  1
1:1
  0
DICTIONARYVAR
  5
6104
102
{ACAD_REACTORS
330
6102
102
}
330
6102
100
DictionaryVariables
280
     0
  1
STANDARD
  0
DICTIONARYVAR
  5
6103
102
{ACAD_REACTORS
330
6102
102
}
330
6102
100
DictionaryVariables
280
     0
  1
STANDARD
  0
DICTIONARYVAR
  5
6108
102
{ACAD_REACTORS
330
6102
102
}
330
6102
100
DictionaryVariables
280
     0
  1
1
  0
DICTIONARYVAR
  5
6107
102
{ACAD_REACTORS
330
6102
102
}
330
6102
100
DictionaryVariables
280
     0
  1
0
  0
DICTIONARYVAR
  5
6106
102
{ACAD_REACTORS
330
6102
102
}
330
6102
100
DictionaryVariables
280
     0
  1
127
  0
VLO-VL
  5
60F3
102
{ACAD_REACTORS
330
60F2
102
}
330
60F2
100
vlo_VL
 90
   -64512
 91
       12
 92
        1
 40
2.5
300
(&VLO-R . 0)
  0
DICTIONARY
  5
7C32
330
5F71
100
AcDbDictionary
280
     1
281
     1
  3
ACAD_XREC_ROUNDTRIP
360
7C33
  0
DICTIONARY
  5
7C30
330
5F6D
100
AcDbDictionary
280
     1
281
     1
  3
ACAD_XREC_ROUNDTRIP
360
7C31
  0
DICTIONARY
  5
5F14
330
5F13
100
AcDbDictionary
280
     1
281
     1
  3
ACAD_XREC_ROUNDTRIP
360
7889
  3
BUMPTILE
360
5F16
  3
DIFFUSETILE
360
5F15
  3
OPACITYTILE
360
5F19
  3
REFLECTIONTILE
360
5F18
  3
REFRACTIONTILE
360
5F1A
  3
SPECULARTILE
360
5F17
  0
DICTIONARY
  5
5F0C
330
5F0B
100
AcDbDictionary
280
     1
281
     1
  3
ACAD_XREC_ROUNDTRIP
360
7888
  3
BUMPTILE
360
5F0E
  3
DIFFUSETILE
360
5F0D
  3
OPACITYTILE
360
5F11
  3
REFLECTIONTILE
360
5F10
  3
REFRACTIONTILE
360
5F12
  3
SPECULARTILE
360
5F0F
  0
DICTIONARY
  5
5F1C
330
5F1B
100
AcDbDictionary
280
     1
281
     1
  3
ACAD_XREC_ROUNDTRIP
360
788A
  3
BUMPTILE
360
5F1E
  3
DIFFUSETILE
360
5F1D
  3
OPACITYTILE
360
5F21
  3
REFLECTIONTILE
360
5F20
  3
REFRACTIONTILE
360
5F22
  3
SPECULARTILE
360
5F1F
  0
DICTIONARY
  5
7884
330
5F66
100
AcDbDictionary
280
     1
281
     1
  3
ACAD_ROUNDTRIP_2008_TABLESTYLE_CELLSTYLEMAP
360
7C29
  3
ACAD_XREC_ROUNDTRIP
360
7C2F
  0
XRECORD
  5
7C33
102
{ACAD_REACTORS
330
7C32
102
}
330
7C32
100
AcDbXrecord
280
     1
102
SHADEPLOT
 70
     0
102
SHADEPLOTRESLEVEL
 70
     2
102
SHADEPLOTCUSTOMDPI
 70
   300
  0
XRECORD
  5
7C31
102
{ACAD_REACTORS
330
7C30
102
}
330
7C30
100
AcDbXrecord
280
     1
102
SHADEPLOT
 70
     0
102
SHADEPLOTRESLEVEL
 70
     2
102
SHADEPLOTCUSTOMDPI
 70
   300
  0
XRECORD
  5
7889
102
{ACAD_REACTORS
330
5F14
102
}
330
5F14
100
AcDbXrecord
280
     1
102
MATERIAL
148
0.0
149
0.0
149
0.0
 93
        0
 94
      127
282
     0
 72
     0
 77
     0
171
     0
175
     0
179
     0
273
     0
  0
XRECORD
  5
5F16
102
{ACAD_REACTORS
330
5F14
102
}
330
5F14
100
AcDbXrecord
280
     1
270
     1
271
     1
  0
XRECORD
  5
5F15
102
{ACAD_REACTORS
330
5F14
102
}
330
5F14
100
AcDbXrecord
280
     1
270
     1
271
     1
  0
XRECORD
  5
5F19
102
{ACAD_REACTORS
330
5F14
102
}
330
5F14
100
AcDbXrecord
280
     1
270
     1
271
     1
  0
XRECORD
  5
5F18
102
{ACAD_REACTORS
330
5F14
102
}
330
5F14
100
AcDbXrecord
280
     1
270
     1
271
     1
  0
XRECORD
  5
5F1A
102
{ACAD_REACTORS
330
5F14
102
}
330
5F14
100
AcDbXrecord
280
     1
270
     1
271
     1
  0
XRECORD
  5
5F17
102
{ACAD_REACTORS
330
5F14
102
}
330
5F14
100
AcDbXrecord
280
     1
270
     1
271
     1
  0
XRECORD
  5
7888
102
{ACAD_REACTORS
330
5F0C
102
}
330
5F0C
100
AcDbXrecord
280
     1
102
MATERIAL
148
0.0
149
0.0
149
0.0
 93
        0
 94
      127
282
     0
 72
     0
 77
     0
171
     0
175
     0
179
     0
273
     0
  0
XRECORD
  5
5F0E
102
{ACAD_REACTORS
330
5F0C
102
}
330
5F0C
100
AcDbXrecord
280
     1
270
     1
271
     1
  0
XRECORD
  5
5F0D
102
{ACAD_REACTORS
330
5F0C
102
}
330
5F0C
100
AcDbXrecord
280
     1
270
     1
271
     1
  0
XRECORD
  5
5F11
102
{ACAD_REACTORS
330
5F0C
102
}
330
5F0C
100
AcDbXrecord
280
     1
270
     1
271
     1
  0
XRECORD
  5
5F10
102
{ACAD_REACTORS
330
5F0C
102
}
330
5F0C
100
AcDbXrecord
280
     1
270
     1
271
     1
  0
XRECORD
  5
5F12
102
{ACAD_REACTORS
330
5F0C
102
}
330
5F0C
100
AcDbXrecord
280
     1
270
     1
271
     1
  0
XRECORD
  5
5F0F
102
{ACAD_REACTORS
330
5F0C
102
}
330
5F0C
100
AcDbXrecord
280
     1
270
     1
271
     1
  0
XRECORD
  5
788A
102
{ACAD_REACTORS
330
5F1C
102
}
330
5F1C
100
AcDbXrecord
280
     1
102
MATERIAL
148
0.0
149
0.0
149
0.0
 93
        0
 94
      127
282
     0
 72
     0
 77
     0
171
     0
175
     0
179
     0
273
     0
  0
XRECORD
  5
5F1E
102
{ACAD_REACTORS
330
5F1C
102
}
330
5F1C
100
AcDbXrecord
280
     1
270
     1
271
     1
  0
XRECORD
  5
5F1D
102
{ACAD_REACTORS
330
5F1C
102
}
330
5F1C
100
AcDbXrecord
280
     1
270
     1
271
     1
  0
XRECORD
  5
5F21
102
{ACAD_REACTORS
330
5F1C
102
}
330
5F1C
100
AcDbXrecord
280
     1
270
     1
271
     1
  0
XRECORD
  5
5F20
102
{ACAD_REACTORS
330
5F1C
102
}
330
5F1C
100
AcDbXrecord
280
     1
270
     1
271
     1
  0
XRECORD
  5
5F22
102
{ACAD_REACTORS
330
5F1C
102
}
330
5F1C
100
AcDbXrecord
280
     1
270
     1
271
     1
  0
XRECORD
  5
5F1F
102
{ACAD_REACTORS
330
5F1C
102
}
330
5F1C
100
AcDbXrecord
280
     1
270
     1
271
     1
  0
CELLSTYLEMAP
  5
7C29
102
{ACAD_REACTORS
330
7884
102
}
330
7884
100
AcDbCellStyleMap
 90
        3
300
CELLSTYLE
  1
TABLEFORMAT_BEGIN
 90
        5
170
     1
 91
        0
 92
    32768
 62
   257
 93
        1
300
CONTENTFORMAT
  1
CONTENTFORMAT_BEGIN
 90
        0
 91
        0
 92
      512
 93
        0
300

 40
0.0
140
1.0
 94
        5
 62
     0
340
5F57
144
0.25
309
CONTENTFORMAT_END
171
     1
301
MARGIN
  1
CELLMARGIN_BEGIN
 40
0.06
 40
0.06
 40
0.06
 40
0.06
 40
0.18
 40
0.18
309
CELLMARGIN_END
 94
        6
 95
        1
302
GRIDFORMAT
  1
GRIDFORMAT_BEGIN
 90
        0
 91
        1
 62
     0
 92
       -2
340
0
 93
        0
 40
0.045
309
GRIDFORMAT_END
 95
        2
302
GRIDFORMAT
  1
GRIDFORMAT_BEGIN
 90
        0
 91
        1
 62
     0
 92
       -2
340
0
 93
        0
 40
0.045
309
GRIDFORMAT_END
 95
        4
302
GRIDFORMAT
  1
GRIDFORMAT_BEGIN
 90
        0
 91
        1
 62
     0
 92
       -2
340
0
 93
        0
 40
0.045
309
GRIDFORMAT_END
 95
        8
302
GRIDFORMAT
  1
GRIDFORMAT_BEGIN
 90
        0
 91
        1
 62
     0
 92
       -2
340
0
 93
        0
 40
0.045
309
GRIDFORMAT_END
 95
       16
302
GRIDFORMAT
  1
GRIDFORMAT_BEGIN
 90
        0
 91
        1
 62
     0
 92
       -2
340
0
 93
        0
 40
0.045
309
GRIDFORMAT_END
 95
       32
302
GRIDFORMAT
  1
GRIDFORMAT_BEGIN
 90
        0
 91
        1
 62
     0
 92
       -2
340
0
 93
        0
 40
0.045
309
GRIDFORMAT_END
309
TABLEFORMAT_END
  1
CELLSTYLE_BEGIN
 90
        1
 91
        1
300
_TITLE
309
CELLSTYLE_END
300
CELLSTYLE
  1
TABLEFORMAT_BEGIN
 90
        5
170
     1
 91
        0
 92
        0
 62
   257
 93
        1
300
CONTENTFORMAT
  1
CONTENTFORMAT_BEGIN
 90
        0
 91
        0
 92
      512
 93
        0
300

 40
0.0
140
1.0
 94
        5
 62
     0
340
5F57
144
0.18
309
CONTENTFORMAT_END
171
     1
301
MARGIN
  1
CELLMARGIN_BEGIN
 40
0.06
 40
0.06
 40
0.06
 40
0.06
 40
0.18
 40
0.18
309
CELLMARGIN_END
 94
        6
 95
        1
302
GRIDFORMAT
  1
GRIDFORMAT_BEGIN
 90
        0
 91
        1
 62
     0
 92
       -2
340
0
 93
        0
 40
0.045
309
GRIDFORMAT_END
 95
        2
302
GRIDFORMAT
  1
GRIDFORMAT_BEGIN
 90
        0
 91
        1
 62
     0
 92
       -2
340
0
 93
        0
 40
0.045
309
GRIDFORMAT_END
 95
        4
302
GRIDFORMAT
  1
GRIDFORMAT_BEGIN
 90
        0
 91
        1
 62
     0
 92
       -2
340
0
 93
        0
 40
0.045
309
GRIDFORMAT_END
 95
        8
302
GRIDFORMAT
  1
GRIDFORMAT_BEGIN
 90
        0
 91
        1
 62
     0
 92
       -2
340
0
 93
        0
 40
0.045
309
GRIDFORMAT_END
 95
       16
302
GRIDFORMAT
  1
GRIDFORMAT_BEGIN
 90
        0
 91
        1
 62
     0
 92
       -2
340
0
 93
        0
 40
0.045
309
GRIDFORMAT_END
 95
       32
302
GRIDFORMAT
  1
GRIDFORMAT_BEGIN
 90
        0
 91
        1
 62
     0
 92
       -2
340
0
 93
        0
 40
0.045
309
GRIDFORMAT_END
309
TABLEFORMAT_END
  1
CELLSTYLE_BEGIN
 90
        2
 91
        1
300
_HEADER
309
CELLSTYLE_END
300
CELLSTYLE
  1
TABLEFORMAT_BEGIN
 90
        5
170
     1
 91
        0
 92
        0
 62
   257
 93
        1
300
CONTENTFORMAT
  1
CONTENTFORMAT_BEGIN
 90
        0
 91
        0
 92
      512
 93
        0
300

 40
0.0
140
1.0
 94
        2
 62
     0
340
5F57
144
0.18
309
CONTENTFORMAT_END
171
     1
301
MARGIN
  1
CELLMARGIN_BEGIN
 40
0.06
 40
0.06
 40
0.06
 40
0.06
 40
0.18
 40
0.18
309
CELLMARGIN_END
 94
        6
 95
        1
302
GRIDFORMAT
  1
GRIDFORMAT_BEGIN
 90
        0
 91
        1
 62
     0
 92
       -2
340
0
 93
        0
 40
0.045
309
GRIDFORMAT_END
 95
        2
302
GRIDFORMAT
  1
GRIDFORMAT_BEGIN
 90
        0
 91
        1
 62
     0
 92
       -2
340
0
 93
        0
 40
0.045
309
GRIDFORMAT_END
 95
        4
302
GRIDFORMAT
  1
GRIDFORMAT_BEGIN
 90
        0
 91
        1
 62
     0
 92
       -2
340
0
 93
        0
 40
0.045
309
GRIDFORMAT_END
 95
        8
302
GRIDFORMAT
  1
GRIDFORMAT_BEGIN
 90
        0
 91
        1
 62
     0
 92
       -2
340
0
 93
        0
 40
0.045
309
GRIDFORMAT_END
 95
       16
302
GRIDFORMAT
  1
GRIDFORMAT_BEGIN
 90
        0
 91
        1
 62
     0
 92
       -2
340
0
 93
        0
 40
0.045
309
GRIDFORMAT_END
 95
       32
302
GRIDFORMAT
  1
GRIDFORMAT_BEGIN
 90
        0
 91
        1
 62
     0
 92
       -2
340
0
 93
        0
 40
0.045
309
GRIDFORMAT_END
309
TABLEFORMAT_END
  1
CELLSTYLE_BEGIN
 90
        3
 91
        2
300
_DATA
309
CELLSTYLE_END
  0
XRECORD
  5
7C2F
102
{ACAD_REACTORS
330
7884
102
}
330
7884
100
AcDbXrecord
280
     1
102
ACAD_ROUNDTRIP_PRE2007_TABLESTYLE
 90
      512
 91
        0
  1

 92
      512
 93
        0
  2

 94
      512
 95
        0
  3

  0
ENDSEC
  0
EOF
